[Аскар Турдугулов / Лилит Восканян] Telegram для Hand Made (интенсив) [2017, телеграм, продвижение, RUS] (Видеоурок)

Ответить на тему
Статистика раздачи
Размер:  680 MB   |    Зарегистрирован:  2 года 4 месяца   |    Скачан:  0 раз
 
   
 
 
Автор Сообщение

star21 ®

Пол: Женский

Стаж: 4 года 6 месяцев

Сообщений: 551945

Откуда: Екатеринбург

Создавать темы 27-Янв-2018 21:06

[Цитировать]

Telegram для Hand Made Авторы: Аскар Турдугулов, Лилит Восканян
Страна: Россия
Тематика: телеграм, продвижение
Тип раздаваемого материала: Видеоурок
Год выпуска: 2017Язык: Русский
Перевод: не требуется
Ссылка на курс на сайте автора: http://handmade-marketing.ru/tgram1Наступили времена больших перемен! Или как оставить конкурентов в глубоком лесу. Наше время мчится со скоростью света, технологии меняются с колоссальной скоростью. Все, что было актуальным вчера, сегодня уже теряет свою эффективность. Мы все больше сталкиваемся с тем, как алгоритмы социальных сетей затачиваются под платное продвижение. Наши важные посты теряются в ленте. Меньше показов, мало кликов, низкая конверсия и пр. Да и платная реклама — бюджеты растут, а эффективность падает. Что делать? Как продвигать свои товары и услуги дальше? Неужели смириться и как марионетка следовать за чужими правилами?Нет! Выход: мессенджер-маркетинг в Телеграм! Вы только представьте себе: темпы роста активной аудитории Телеграм в несколько раз опережают Facebook, Gmail, Skype и даже WhatsApp! А это значит, что нужно скорее бежать в Телеграм и быть первым, оставив позади всех своих конкурентов. Как известно, тот, кто первый, получает самые сливки.Цель нашего интенсива по Telegram — дать Вам столько полезных знаний, чтобы через пару месяцев Ваш канал стал источником доходов как от клиентов, так и от рекламы.Боты — Рассказываем, как грамотно использовать ботов в бизнесе, которые обеспечат не только интерактив, но и станут проводниками для ваших клиентов.
Лояльность — Учим тому, как поддерживать высокую вовлеченность клиентов, чтобы они горели желанием читать вас ежедневно и, конечно же, покупать у Вас.
Без бюджета — Выдаем список инструментов, которые используем сами и которые дают результаты без финансовых вложений.Продолжительность: 04:11:30Формат: MP4, PDF, TXT
Видео: AVC, 640x360/1280x720, ~1114 Kbps
Аудио: AAC, 96 Kbps, 44.0 KHz VBR

Учебный план

  • Управление и оформление канала Telegram
  • Детальный разбор ботов для каналов
  • Узнаете как правильно готовить контент: текст, видео, аудио, фото
  • Как создать каталоги и кнопки для заказа
  • Подключаем платежную систему
  • Сбор статистики, анализ конверсии
  • Как продвигать канал (платно и бесплатно)
  • Вы узнаете о способах раскрутки своего канала
  • Как создать свои стикеры с нуля, даже если вы не дизайнер
  • Продвижение канала через собственные стикеры
  • Способы монетизации канала
  • Полезные боты
  • Доступ в приватный канал
  • Несколько бонусов

MediaInfo

GeneralComplete name                  : C:\Users\01-Telegram для HandMade [Интенсив от 10 июня 2017].mp4Format                         : MPEG-4Format profile                 : Base Media / Version 2Codec ID                       : mp42 (isom/mp42)File size                      : 346 MiBDuration                       : 2 h 45 minOverall bit rate mode          : VariableOverall bit rate               : 292 kb/sEncoded date                   : UTC 2017-06-11 14:23:13Tagged date                    : UTC 2017-06-11 14:23:13gsst                           : 0gstd                           : 9930453VideoID                             : 1Format                         : AVCFormat/Info                    : Advanced Video CodecFormat profile                 : Baseline@L3Format settings, CABAC         : NoFormat settings, ReFrames      : 1 frameCodec ID                       : avc1Codec ID/Info                  : Advanced Video CodingDuration                       : 2 h 45 minBit rate                       : 194 kb/sMaximum bit rate               : 1 141 kb/sWidth                          : 640 pixelsHeight                         : 360 pixelsDisplay aspect ratio           : 16:9Frame rate mode                : ConstantFrame rate                     : 30.000 FPSColor space                    : YUVChroma subsampling             : 4:2:0Bit depth                      : 8 bitsScan type                      : ProgressiveBits/(Pixel*Frame)             : 0.028Stream size                    : 229 MiB (66%)Tagged date                    : UTC 2017-06-11 14:24:08Color range                    : LimitedColor primaries                : BT.709Transfer characteristics       : BT.709Matrix coefficients            : BT.709AudioID                             : 2Format                         : AACFormat/Info                    : Advanced Audio CodecFormat profile                 : LCCodec ID                       : 40Duration                       : 2 h 45 minBit rate mode                  : VariableBit rate                       : 96.0 kb/sMaximum bit rate               : 104 kb/sChannel(s)                     : 2 channelsChannel positions              : Front: L RSampling rate                  : 44.1 kHzFrame rate                     : 43.066 FPS (1024 spf)Compression mode               : LossyStream size                    : 114 MiB (33%)Title                          : IsoMedia File Produced by Google, 5-11-2011Language                       : EnglishEncoded date                   : UTC 2017-06-11 14:23:41Tagged date                    : UTC 2017-06-11 14:24:08

Скриншоты


Спасибо большое за информативный, прекрасно подготовленный и интересный вебинар! Очень важные нюансы, до которых сама бы не дошла.
Лилит отдельное спасибо за ответственное отношение, а Аскару за вдохновение!
© ruchkikruchki

Чтобы скачать этот контент, Вам необходимо:
1. Скачать и установить торрент-клиент [клик для Windows], (для мобильного найдите на Play Маркет).
2. Кликнуть по [Скачать]


Внимание.
Если проверка ВЫ НЕ РОБОТ - не работает, значит Вы используете устаревший браузер.
Установите актуальный браузер и повторно кликните по [Скачать]

Запрещён Яндекс браузер. Загрузка файлов им является ошибочной.
Безопасность: торрент-клиент разрешён АВ Касперского.

[asmlocator.ru].t498003.torrent
Торрент: Зарегистрирован [ 2018-01-27 21:05 ] · D989960D50BC078A6ABE2A0C90EEA3CBE198032B

Скачать .torrent

Скачать

28 KB

Статус: x закрыто
Скачан: 0 раз
Размер: 680 MB
terms.php
[Профиль] [ЛС]
Показать сообщения:    
Ответить на тему

Текущее время: 02-Июн 23:19

Часовой пояс: UTC ± 0



Вы не можете начинать темы
Вы не можете отвечать на сообщения
Вы не можете редактировать свои сообщения
Вы не можете удалять свои сообщения
Вы не можете голосовать в опросах
Вы не можете прикреплять файлы к сообщениям
Вы можете скачивать файлы
Верим фактам, а не вранью Путина! Факт, что Правительство ведёт Россию к истреблению.
Так как численность населения падает, даже не смотря на приток эмигрантов!
Русская нация вымирает и вырождается, смешиваясь с эмигрантами!
Факт, что военных и граждан предприятий заставляют голосовать за партию Единая Россия и Путина
ПОД СТРАХОМ УВОЛЬНЕНИЯ!
Нам не нужно Правительство, блокирующее личную жизнь, интернет, нарушающее сохранность данных.
Все эти действия финансируются за счёт народа!