(Drum and Bass, Jungle, Darkside, Techno) [116xCD] Label: KDK (Пиратская станция, Therapy Session, Gunsta records) - 2003-2009, FLAC (image+.cue), lossless

Ответить на тему
Статистика раздачи
Размер:  65,45 GB   |    Зарегистрирован:  8 месяцев 22 дня   |    Скачан:  0 раз

Полного источника не было: Никогда

 
   
 
 
Автор Сообщение

star21 ®

Пол: Женский

Стаж: 2 года 11 месяцев

Сообщений: 552946

Откуда: Екатеринбург

Создавать темы 26-Янв-2018 13:35

[Цитировать]

KDK
Drum and Bass version Жанр: Drum and Bass, Jungle, Techno
Носитель: CD
Страна-производитель диска (релиза): Россия
Год издания: 2003-2009
Аудиокодек: FLAC (*.flac)
Тип рипа: image+.cue
Битрейт аудио: lossless
Продолжительность: 05:20:04:30
Источник (релизер): собственные рипы & rtr
Наличие сканов в содержимом раздачи: да

Пиратская станция

Пиратская Станция

2003 - VA - DJ Гвоздь - Пиратская станция I [С20285]

Продолжительность: 01:00:0301. M.I.S.T vs High Contrast - 3am [06:58]
02. Paul B & B. Core - Summer Love [04:39]
03. Dj Marky & XRS & Stamina MC - LK [04:27]
04. Lil' Louis - French Kiss (Ed Rush & Optical Remix) [04:14]
05. Ed Rush & Optical - Pacman (Ram Trilogy Remix) [05:05]
06. High Contrast - Return Of Forever [06:02]
07. Tiga & Zytherius - Sunglasses At Night (D&B Remix) [06:47]
08. Shimon & Andy C - Body Rock [02:19]
09. The Streets - Has It Come To This? (High Contrast 'It's Come To This' Remix) [04:29]
10. UK Apachi & Shy FX - Nuttah VIP (Shy FX Bambaata Mix) [04:55]
11. Un-cut & Future Cut & Jenna G - Midnight (Marcus Intalex & S.T. Files Remix) [04:58]
12. Hatiras vs J Majik - Spaced Invader [05:15]

Log

Exact Audio Copy V1.1 from 23. June 2015EAC extraction logfile from 14. August 2016, 17:44DJ Гвоздь / Пиратская станция IUsed drive  : ASUS    SDRW-08D2S-U   Adapter: 1  ID: 0Read mode               : SecureUtilize accurate stream : YesDefeat audio cache      : YesMake use of C2 pointers : NoRead offset correction                      : 6Overread into Lead-In and Lead-Out          : NoFill up missing offset samples with silence : YesDelete leading and trailing silent blocks   : NoNull samples used in CRC calculations       : YesUsed interface                              : Native Win32 interface for Win NT & 2000Used output format              : User Defined EncoderSelected bitrate                : 128 kBit/sQuality                         : HighAdd ID3 tag                     : NoCommand line compressor         : D:\flac-1.3.1-win\win64\flac.exeAdditional command line options : -V -8 -T "Date=%year%" -T "COMMENT=ripped by Andy aka yetiisyou" -T "Genre=%genre%" %source%TOC of the extracted CD     Track |   Start  |  Length  | Start sector | End sector    ---------------------------------------------------------        1  |  0:00.00 |  6:57.54 |         0    |    31328        2  |  6:57.54 |  4:38.22 |     31329    |    52200        3  | 11:36.01 |  4:26.15 |     52201    |    72165        4  | 16:02.16 |  4:13.40 |     72166    |    91180        5  | 20:15.56 |  5:04.67 |     91181    |   114047        6  | 25:20.48 |  6:01.05 |    114048    |   141127        7  | 31:21.53 |  6:46.39 |    141128    |   171616        8  | 38:08.17 |  2:18.70 |    171617    |   182036        9  | 40:27.12 |  4:28.03 |    182037    |   202139       10  | 44:55.15 |  4:54.19 |    202140    |   224208       11  | 49:49.34 |  4:57.59 |    224209    |   246542       12  | 54:47.18 |  5:14.61 |    246543    |   270153Range status and errorsSelected range     Filename E:\!Ripped by Andy aka yetiisyou\2003 - VA - DJ Гвоздь - Пиратская станция I [С20285]\DJ Гвоздь - Пиратская станция I.wav     Peak level 100.0 %     Extraction speed 4.9 X     Range quality 100.0 %     Test CRC 41AA8FF9     Copy CRC 41AA8FF9     Copy OKNo errors occurredAccurateRip summaryTrack  1  accurately ripped (confidence 1)  [D84387F5]  (AR v1)Track  2  accurately ripped (confidence 1)  [88C7C2FD]  (AR v1)Track  3  accurately ripped (confidence 1)  [68FC04DA]  (AR v1)Track  4  accurately ripped (confidence 1)  [4865AEE1]  (AR v1)Track  5  accurately ripped (confidence 1)  [C9EE3DFF]  (AR v1)Track  6  accurately ripped (confidence 1)  [27D83888]  (AR v1)Track  7  accurately ripped (confidence 1)  [20D516D0]  (AR v1)Track  8  accurately ripped (confidence 1)  [0395A7B3]  (AR v1)Track  9  accurately ripped (confidence 1)  [1C02E15A]  (AR v1)Track 10  accurately ripped (confidence 1)  [78BB0120]  (AR v1)Track 11  accurately ripped (confidence 1)  [7F5C9335]  (AR v1)Track 12  accurately ripped (confidence 1)  [E73A9345]  (AR v1)All tracks accurately rippedEnd of status report---- CUETools DB Plugin V2.1.6[CTDB TOCID: NHYBBbpN_yJpfPQoA0ryrZuzY.w-] foundSubmit result: NHYBBbpN_yJpfPQoA0ryrZuzY.w- has been confirmedTrack | CTDB Status  1   | (2/2) Accurately ripped  2   | (2/2) Accurately ripped  3   | (2/2) Accurately ripped  4   | (2/2) Accurately ripped  5   | (2/2) Accurately ripped  6   | (2/2) Accurately ripped  7   | (2/2) Accurately ripped  8   | (2/2) Accurately ripped  9   | (2/2) Accurately ripped 10   | (2/2) Accurately ripped 11   | (2/2) Accurately ripped 12   | (2/2) Accurately ripped==== Log checksum FB760BF96F74E70D566C98640AD6CC129E1673B93C7854A71C654E62D2BFDB91 ====

2003 - VA - Cause4Concern & DJ Negative - Live @ Pirate Station [RSM 028]

Продолжительность: 01:12:2701. Cause 4 Concern - Turn The Lights Down [03:50]
02. Klute - Evo Sniffer (Keaton remix) [01:35]
03. Bulletproof & Optiv - Camouflage [04:17]
04. Marcus Intalex - Baracuda [02:52]
05. Digital - Gateman (Keaton Remix) [03:36]
06. Teebee - Tech G [02:25]
07. Matrix & Fierce - Climate (Cause 4 Concern Remix) [04:18]
08. Pendulum - Back 2 You [04:54]
09. Keaton & Hive - The Plague (DJ Trace Remix) [01:48]
10. John B - Pressure (2004 Remix) [02:07]
11. Dj RED - Enta Tha Dragon (Twisted Individual remix) [02:51]
12. Universal Project – Outrun - Universal Project – Outrun [03:10]
13. Raiden - Pinball [03:27]
14. Friction - The 3rd Planet [01:37]
15. Concord Dawn - Raining Blood [03:16]
16. Hive & Gridlok - AC-DC [04:34]
17. Hatiras - The Anthem (Kemal Remix) [02:43]
18. Stakka & K.Tee - Echo Chamber (Kaos, Karl K & Jae Kennedy Remix) [02:11]
19. Pendulum - Trail Of Sevens [01:48]
20. Fresh - All Strung Out [06:21]
21. Concord Dawn & Optiv - Quattro [01:27]
22. Skynet - Code Orange [02:10]
23. Skynet - Lifeforce [05:20]

Log

Exact Audio Copy V1.1 from 23. June 2015EAC extraction logfile from 26. September 2015, 10:49Cause4Concern & DJ Negative / Live @ Pirate StationUsed drive  : ASUS    SDRW-08D2S-U   Adapter: 1  ID: 0Read mode               : SecureUtilize accurate stream : YesDefeat audio cache      : YesMake use of C2 pointers : NoRead offset correction                      : 6Overread into Lead-In and Lead-Out          : NoFill up missing offset samples with silence : YesDelete leading and trailing silent blocks   : NoNull samples used in CRC calculations       : YesUsed interface                              : Native Win32 interface for Win NT & 2000Used output format              : User Defined EncoderSelected bitrate                : 32 kBit/sQuality                         : HighAdd ID3 tag                     : NoCommand line compressor         : C:\Exact Audio Copy [installed]\Flac\flac.exeAdditional command line options : -V -8 -T "Date=%year%" -T "COMMENT=ripped by Andy aka yetiisyou" -T "Genre=%genre%" %source%TOC of the extracted CD     Track |   Start  |  Length  | Start sector | End sector    ---------------------------------------------------------        1  |  0:00.00 |  3:49.40 |         0    |    17214        2  |  3:49.40 |  1:34.67 |     17215    |    24331        3  |  5:24.32 |  4:16.47 |     24332    |    43578        4  |  9:41.04 |  2:51.73 |     43579    |    56476        5  | 12:33.02 |  3:35.05 |     56477    |    72606        6  | 16:08.07 |  2:24.25 |     72607    |    83431        7  | 18:32.32 |  4:17.74 |     83432    |   102780        8  | 22:50.31 |  4:53.03 |    102781    |   124758        9  | 27:43.34 |  1:47.65 |    124759    |   132848       10  | 29:31.24 |  2:06.57 |    132849    |   142355       11  | 31:38.06 |  2:50.31 |    142356    |   155136       12  | 34:28.37 |  3:09.60 |    155137    |   169371       13  | 37:38.22 |  3:26.05 |    169372    |   184826       14  | 41:04.27 |  1:36.73 |    184827    |   192099       15  | 42:41.25 |  3:15.07 |    192100    |   206731       16  | 45:56.32 |  4:33.50 |    206732    |   227256       17  | 50:30.07 |  2:42.43 |    227257    |   239449       18  | 53:12.50 |  2:10.06 |    239450    |   249205       19  | 55:22.56 |  1:47.02 |    249206    |   257232       20  | 57:09.58 |  6:20.39 |    257233    |   285771       21  | 63:30.22 |  1:26.51 |    285772    |   292272       22  | 64:56.73 |  2:09.39 |    292273    |   301986       23  | 67:06.37 |  5:19.65 |    301987    |   325976Range status and errorsSelected range     Filename E:\!Ripped by Andy aka yetiisyou\Пиратская станция\VA - Cause4Concern & DJ Negative - Live @ Pirate Station [RSM 028] [2003]\Cause4Concern & DJ Negative - Live @ Pirate Station.wav     Peak level 100.0 %     Extraction speed 5.0 X     Range quality 100.0 %     Test CRC F437DAE6     Copy CRC F437DAE6     Copy OKNo errors occurredAccurateRip summaryTrack  1  not present in databaseTrack  2  not present in databaseTrack  3  not present in databaseTrack  4  not present in databaseTrack  5  not present in databaseTrack  6  not present in databaseTrack  7  not present in databaseTrack  8  not present in databaseTrack  9  not present in databaseTrack 10  not present in databaseTrack 11  not present in databaseTrack 12  not present in databaseTrack 13  not present in databaseTrack 14  not present in databaseTrack 15  not present in databaseTrack 16  not present in databaseTrack 17  not present in databaseTrack 18  not present in databaseTrack 19  not present in databaseTrack 20  not present in databaseTrack 21  not present in databaseTrack 22  not present in databaseTrack 23  not present in databaseNone of the tracks are present in the AccurateRip databaseEnd of status report---- CUETools DB Plugin V2.1.6[CTDB TOCID: WpWz36M.Znh82CrqXg3uEXTV0NA-] foundSubmit result: already submittedTrack | CTDB Status  1   | (2/2) Accurately ripped  2   | (2/2) Accurately ripped  3   | (2/2) Accurately ripped  4   | (2/2) Accurately ripped  5   | (2/2) Accurately ripped  6   | (2/2) Accurately ripped  7   | (2/2) Accurately ripped  8   | (2/2) Accurately ripped  9   | (2/2) Accurately ripped 10   | (2/2) Accurately ripped 11   | (2/2) Accurately ripped 12   | (2/2) Accurately ripped 13   | (2/2) Accurately ripped 14   | (2/2) Accurately ripped 15   | (2/2) Accurately ripped 16   | (2/2) Accurately ripped 17   | (2/2) Accurately ripped 18   | (2/2) Accurately ripped 19   | (2/2) Accurately ripped 20   | (2/2) Accurately ripped 21   | (2/2) Accurately ripped 22   | (2/2) Accurately ripped 23   | (2/2) Accurately ripped==== Log checksum 1619AD1AE4865407CBEEAC98D6955640C37D92E62D256A6DB09CEC3AD5BDD813 ====

2003 - VA - Пиратская Станция 2. Russian Version [С30445]

Продолжительность: 01:18:2401. Dj Gvozd - Intro [00:34]
02. Bad M.F. Feat. Bad Girl - Let It Be (Bes Rmx) [06:16]
03. Bes - Happy Bitch [06:04]
04. Bes & Sunschase - Waterpipe (Bes 'No Good' Version) [06:16]
05. R.E.S.T. Art - Body Guard (3'0'3 Project Rmx) [04:57]
06. Zemine - Murderer [06:23]
07. Skyform Feat. Bazil - Spectral Sun [08:00]
08. Gvozd & E-Beat - We Bring U The Nu Culture [06:59]
09. Blasta - Моя Подруга [06:43]
10. Subwave - Bad Ambitions [05:54]
11. Dj Dan - Last In Love [06:50]
12. Ruffen & Dissident - Metacosmo [06:03]
13. Ruffen & Dissident - Spacerider [07:29]

Log

Exact Audio Copy V1.1 from 23. June 2015EAC extraction logfile from 17. October 2015, 1:50Various Artists / Пиратская Станция 2. Russian VersionUsed drive  : ASUS    SDRW-08D2S-U   Adapter: 1  ID: 0Read mode               : SecureUtilize accurate stream : YesDefeat audio cache      : YesMake use of C2 pointers : NoRead offset correction                      : 6Overread into Lead-In and Lead-Out          : NoFill up missing offset samples with silence : YesDelete leading and trailing silent blocks   : NoNull samples used in CRC calculations       : YesUsed interface                              : Native Win32 interface for Win NT & 2000Used output format              : User Defined EncoderSelected bitrate                : 32 kBit/sQuality                         : HighAdd ID3 tag                     : NoCommand line compressor         : C:\Exact Audio Copy [installed]\Flac\flac.exeAdditional command line options : -V -8 -T "Date=%year%" -T "COMMENT=ripped by Andy aka yetiisyou" -T "Genre=%genre%" %source%TOC of the extracted CD     Track |   Start  |  Length  | Start sector | End sector    ---------------------------------------------------------        1  |  0:00.00 |  0:33.51 |         0    |     2525        2  |  0:33.51 |  6:15.61 |      2526    |    30711        3  |  6:49.37 |  6:03.06 |     30712    |    57942        4  | 12:52.43 |  6:15.52 |     57943    |    86119        5  | 19:08.20 |  4:56.70 |     86120    |   108389        6  | 24:05.15 |  6:22.61 |    108390    |   137100        7  | 30:28.01 |  8:00.00 |    137101    |   173100        8  | 38:28.01 |  6:58.59 |    173101    |   204509        9  | 45:26.60 |  6:42.50 |    204510    |   234709       10  | 52:09.35 |  5:53.21 |    234710    |   261205       11  | 58:02.56 |  6:49.25 |    261206    |   291905       12  | 64:52.06 |  6:02.73 |    291906    |   319128       13  | 70:55.04 |  7:28.41 |    319129    |   352769Range status and errorsSelected range     Filename E:\!Ripped by Andy aka yetiisyou\2003 - VA - Пиратская Станция 2. Russian Version [С30445]\Пиратская Станция 2. Russian Version.wav     Peak level 100.0 %     Extraction speed 2.3 X     Range quality 100.0 %     Test CRC 9C5249C9     Copy CRC 9C5249C9     Copy OKNo errors occurredAccurateRip summaryTrack  1  not present in databaseTrack  2  not present in databaseTrack  3  not present in databaseTrack  4  not present in databaseTrack  5  not present in databaseTrack  6  not present in databaseTrack  7  not present in databaseTrack  8  not present in databaseTrack  9  not present in databaseTrack 10  not present in databaseTrack 11  not present in databaseTrack 12  not present in databaseTrack 13  not present in databaseNone of the tracks are present in the AccurateRip databaseEnd of status report---- CUETools DB Plugin V2.1.6[CTDB TOCID: rKpk4nMGiQ57Gs0uvi2DOt38YgE-] disk not present in databaseSubmit result: rKpk4nMGiQ57Gs0uvi2DOt38YgE- has been uploaded==== Log checksum FC0B9D072279EA7E067D17FEAF99DEBDA7C037CDAEA6E479B38547D2811CDF03 ====

2004 - VA - Пиратская Станция 2. Mixed By DJ Gvozd [C30376]

Продолжительность: 01:08:1901. Пиратская Станция 2 - Intro [00:33]
02. Future Sound Of London - Papua New Guinea (High Contrast remix) [02:42]
03. Chris Su - Undying [03:51]
04. London Electricity - Different Drum [05:37]
05. Destiny's Childs - Survivor (D'n'B remix) [04:12]
06. Bad Company - Grunge 3 (Dieselboy & Kaos remix) [03:49]
07. Funk Parlor - Something 4 The Dancefloor [02:22]
08. Dj Magic vs. Gil Felix - Capoiera [05:17]
09. Concord Dawn - Raining Blood [05:27]
10. D Kay & Raw Full - Be There 4 U (Concord Dawn rmx) [02:55]
11. Ill Skills - Bowser [04:44]
12. Dad Company - Planet Dus [05:24]
13. High Contrast - Basement Track [05:02]
14. D Kay & Epsilon - Barcel [05:02]
15. Metallica - Master Of Puppets (Dylan remix) [03:45]
16. Missy Elliot Bootleg - Get Your Freak On (D'n'B rmx) [03:30]
17. Adam F - Circles [04:14]

Log

Exact Audio Copy V1.1 from 23. June 2015EAC extraction logfile from 14. August 2016, 19:06Mixed by Dj Gvozd / Пиратская Станция 2Used drive  : ASUS    SDRW-08D2S-U   Adapter: 1  ID: 0Read mode               : SecureUtilize accurate stream : YesDefeat audio cache      : YesMake use of C2 pointers : NoRead offset correction                      : 6Overread into Lead-In and Lead-Out          : NoFill up missing offset samples with silence : YesDelete leading and trailing silent blocks   : NoNull samples used in CRC calculations       : YesUsed interface                              : Native Win32 interface for Win NT & 2000Used output format              : User Defined EncoderSelected bitrate                : 128 kBit/sQuality                         : HighAdd ID3 tag                     : NoCommand line compressor         : D:\flac-1.3.1-win\win64\flac.exeAdditional command line options : -V -8 -T "Date=%year%" -T "COMMENT=ripped by Andy aka yetiisyou" -T "Genre=%genre%" %source%TOC of the extracted CD     Track |   Start  |  Length  | Start sector | End sector    ---------------------------------------------------------        1  |  0:00.00 |  0:32.14 |         0    |     2413        2  |  0:32.14 |  2:41.28 |      2414    |    14516        3  |  3:13.42 |  3:50.64 |     14517    |    31830        4  |  7:04.31 |  5:36.73 |     31831    |    57103        5  | 12:41.29 |  4:11.29 |     57104    |    75957        6  | 16:52.58 |  3:48.60 |     75958    |    93117        7  | 20:41.43 |  2:21.34 |     93118    |   103726        8  | 23:03.02 |  5:16.19 |    103727    |   127445        9  | 28:19.21 |  5:27.00 |    127446    |   151970       10  | 33:46.21 |  2:54.28 |    151971    |   165048       11  | 36:40.49 |  4:43.13 |    165049    |   186286       12  | 41:23.62 |  5:23.47 |    186287    |   210558       13  | 46:47.34 |  5:01.45 |    210559    |   233178       14  | 51:49.04 |  5:01.64 |    233179    |   255817       15  | 56:50.68 |  3:44.39 |    255818    |   272656       16  | 60:35.32 |  3:29.18 |    272657    |   288349       17  | 64:04.50 |  4:13.63 |    288350    |   307387Range status and errorsSelected range     Filename E:\!Ripped by Andy aka yetiisyou\2004 - VA - Пиратская Станция 2. Mixed By DJ Gvozd [C30376]\Mixed by Dj Gvozd - Пиратская Станция 2.wav     Peak level 96.6 %     Extraction speed 5.2 X     Range quality 99.9 %     Test CRC 5091C3C4     Copy CRC 5091C3C4     Copy OKNo errors occurredAccurateRip summaryTrack  1  not present in databaseTrack  2  not present in databaseTrack  3  not present in databaseTrack  4  not present in databaseTrack  5  not present in databaseTrack  6  not present in databaseTrack  7  not present in databaseTrack  8  not present in databaseTrack  9  not present in databaseTrack 10  not present in databaseTrack 11  not present in databaseTrack 12  not present in databaseTrack 13  not present in databaseTrack 14  not present in databaseTrack 15  not present in databaseTrack 16  not present in databaseTrack 17  not present in databaseNone of the tracks are present in the AccurateRip databaseEnd of status report---- CUETools DB Plugin V2.1.6[CTDB TOCID: x45ZTRhuieBGMlKJlDFyGczH.3I-] disk not present in databaseSubmit result: x45ZTRhuieBGMlKJlDFyGczH.3I- has been uploaded==== Log checksum C5585FF965B64164EB348F980AAAEF85D487E8CB49EEBA77BD86845A35EB89AB ====

2004 - VA - Dj Aphrodite - Live @ Пиратская Станция [С30994]

Продолжительность: 01:17:2201. Intro - Aphrodite [00:18]
02. Bump'N'Grid - Roni Size [02:50]
03. Original Foundation (Majistrate Remix) - DJ Hype feat. Daddy Earl [02:07]
04. Beefcake - Aphrodite [02:18]
05. Neck Breaker - Benny Page [01:46]
06. Stalker (Benny Page rmx) - Aphrodite [03:31]
07. Precinct 13 - Accidential Hero [02:48]
08. Style From The Dark Side, Wobble, Karma Sutra, Music Hyptonising, Woman That ... - Aphrodite [05:15]
09. Crowler - Special K [02:22]
10. Ska (Unknown Remix) - Dj Zinc [02:01]
11. Europa - Pascal and Clone [02:16]
12. Can't Stop - Stevie Hyper [03:31]
13. Dj Aphrodite - N/A [01:46]
14. Cyclops - S.M.O.K.E. [01:45]
15. Yankee Doodle - DJ Nicol & Magistrate [02:48]
16. Cyclops mix - S.M.O.K.E. [02:21]
17. Living in Darkness (RMX) - Top Buzz [04:23]
18. Fanfare (Bomber mix) - Aphrodite [02:48]
19. All Over Me - Aphrodite feat. Barrington Levy [02:59]
20. Gees - Ready Or Not + Twist 'em Out - Aphrodite vs. Fu [04:23]
21. You're Mine - Potential Bad Boy ft. Yush [02:08]
22. Evolution - Sketch and Code feat. Kim Nile [02:28]
23. Blue Mystique Remix - Aphrodite [02:28]
24. Boomtime - Aphrodite [02:28]
25. Dirty Base (Aphrodite Remix) - Cujo [02:48]
26. Ganja Man - Aphrodite feat. Deadly Hunta [03:53]
27. Original Nuttah (Aphrodite Remix) - Shy FX (feat. UK Apache) [03:33]
28. Dub Moods (DJ Phantasy ft Shodan Remix) - Aphrodite [03:33]

Log

Exact Audio Copy V1.1 from 23. June 2015EAC extraction logfile from 26. September 2015, 1:52Dj Aphrodite / Live @ Пиратская СтанцияUsed drive  : ASUS    SDRW-08D2S-U   Adapter: 1  ID: 0Read mode               : SecureUtilize accurate stream : YesDefeat audio cache      : YesMake use of C2 pointers : NoRead offset correction                      : 6Overread into Lead-In and Lead-Out          : NoFill up missing offset samples with silence : YesDelete leading and trailing silent blocks   : NoNull samples used in CRC calculations       : YesUsed interface                              : Native Win32 interface for Win NT & 2000Used output format              : User Defined EncoderSelected bitrate                : 32 kBit/sQuality                         : HighAdd ID3 tag                     : NoCommand line compressor         : C:\Exact Audio Copy [installed]\Flac\flac.exeAdditional command line options : -V -8 -T "Date=%year%" -T "COMMENT=ripped by Andy aka yetiisyou" -T "Genre=%genre%" %source%TOC of the extracted CD     Track |   Start  |  Length  | Start sector | End sector    ---------------------------------------------------------        1  |  0:00.00 |  0:17.68 |         0    |     1342        2  |  0:17.68 |  2:49.27 |      1343    |    14044        3  |  3:07.20 |  2:06.68 |     14045    |    23562        4  |  5:14.13 |  2:17.05 |     23563    |    33842        5  |  7:31.18 |  1:45.42 |     33843    |    41759        6  |  9:16.60 |  3:30.36 |     41760    |    57545        7  | 12:47.21 |  2:47.68 |     57546    |    70138        8  | 15:35.14 |  5:14.72 |     70139    |    93760        9  | 20:50.11 |  2:21.37 |     93761    |   104372       10  | 23:11.48 |  2:00.25 |    104373    |   113397       11  | 25:11.73 |  2:15.55 |    113398    |   123577       12  | 27:27.53 |  3:30.01 |    123578    |   139328       13  | 30:57.54 |  1:45.38 |    139329    |   147241       14  | 32:43.17 |  1:44.65 |    147242    |   155106       15  | 34:28.07 |  2:47.37 |    155107    |   167668       16  | 37:15.44 |  2:20.40 |    167669    |   178208       17  | 39:36.09 |  4:22.25 |    178209    |   197883       18  | 43:58.34 |  2:47.02 |    197884    |   210410       19  | 46:45.36 |  2:58.13 |    210411    |   223773       20  | 49:43.49 |  4:23.00 |    223774    |   243498       21  | 54:06.49 |  2:07.25 |    243499    |   253048       22  | 56:13.74 |  2:27.50 |    253049    |   264123       23  | 58:41.49 |  2:27.37 |    264124    |   275185       24  | 61:09.11 |  2:27.25 |    275186    |   286235       25  | 63:36.36 |  2:48.00 |    286236    |   298835       26  | 66:24.36 |  3:52.35 |    298836    |   316270       27  | 70:16.71 |  3:32.28 |    316271    |   332198       28  | 73:49.24 |  3:32.15 |    332199    |   348113Range status and errorsSelected range     Filename E:\!Ripped by Andy aka yetiisyou\Пиратская станция\VA - Dj Aphrodite - Live @ Пиратская Станция [С 30994] [2004]\Dj Aphrodite - Live @ Пиратская Станция.wav     Peak level 100.0 %     Extraction speed 4.4 X     Range quality 99.9 %     Test CRC 4ED6D69F     Copy CRC 4ED6D69F     Copy OKNo errors occurredAccurateRip summaryTrack  1  accurately ripped (confidence 1)  [761FAFE9]  (AR v2)Track  2  accurately ripped (confidence 1)  [235FBB8D]  (AR v2)Track  3  accurately ripped (confidence 1)  [78B7C823]  (AR v2)Track  4  accurately ripped (confidence 1)  [C33112D2]  (AR v2)Track  5  accurately ripped (confidence 1)  [3812A202]  (AR v2)Track  6  accurately ripped (confidence 1)  [D78F024D]  (AR v2)Track  7  accurately ripped (confidence 1)  [E2B35BB1]  (AR v2)Track  8  accurately ripped (confidence 1)  [09EF59FD]  (AR v2)Track  9  accurately ripped (confidence 1)  [5DBB0580]  (AR v2)Track 10  accurately ripped (confidence 1)  [B791313A]  (AR v2)Track 11  accurately ripped (confidence 1)  [337244F2]  (AR v2)Track 12  accurately ripped (confidence 1)  [049CD7D7]  (AR v2)Track 13  accurately ripped (confidence 1)  [A063C76F]  (AR v2)Track 14  accurately ripped (confidence 1)  [F7FE5B8E]  (AR v2)Track 15  accurately ripped (confidence 1)  [B68C6BB7]  (AR v2)Track 16  accurately ripped (confidence 1)  [5C93BEFF]  (AR v2)Track 17  accurately ripped (confidence 1)  [B7AF4633]  (AR v2)Track 18  accurately ripped (confidence 1)  [7E3157BC]  (AR v2)Track 19  accurately ripped (confidence 1)  [8AB276EE]  (AR v2)Track 20  accurately ripped (confidence 1)  [E3A9F536]  (AR v2)Track 21  accurately ripped (confidence 1)  [1968D3DB]  (AR v2)Track 22  accurately ripped (confidence 1)  [01E742C4]  (AR v2)Track 23  accurately ripped (confidence 1)  [2C37225D]  (AR v2)Track 24  accurately ripped (confidence 1)  [45154337]  (AR v2)Track 25  accurately ripped (confidence 1)  [4AF95D20]  (AR v2)Track 26  accurately ripped (confidence 1)  [A662E31E]  (AR v2)Track 27  accurately ripped (confidence 1)  [5078088F]  (AR v2)Track 28  accurately ripped (confidence 1)  [F3FC97BF]  (AR v2)All tracks accurately rippedEnd of status report---- CUETools DB Plugin V2.1.6[CTDB TOCID: V4JZ5r1YxMdtBTSaQsWw1h9cbh4-] foundSubmit result: V4JZ5r1YxMdtBTSaQsWw1h9cbh4- has been confirmedTrack | CTDB Status  1   | (1/1) Accurately ripped  2   | (1/1) Accurately ripped  3   | (1/1) Accurately ripped  4   | (1/1) Accurately ripped  5   | (1/1) Accurately ripped  6   | (1/1) Accurately ripped  7   | (1/1) Accurately ripped  8   | (1/1) Accurately ripped  9   | (1/1) Accurately ripped 10   | (1/1) Accurately ripped 11   | (1/1) Accurately ripped 12   | (1/1) Accurately ripped 13   | (1/1) Accurately ripped 14   | (1/1) Accurately ripped 15   | (1/1) Accurately ripped 16   | (1/1) Accurately ripped 17   | (1/1) Accurately ripped 18   | (1/1) Accurately ripped 19   | (1/1) Accurately ripped 20   | (1/1) Accurately ripped 21   | (1/1) Accurately ripped 22   | (1/1) Accurately ripped 23   | (1/1) Accurately ripped 24   | (1/1) Accurately ripped 25   | (1/1) Accurately ripped 26   | (1/1) Accurately ripped 27   | (1/1) Accurately ripped 28   | (1/1) Accurately ripped==== Log checksum 69FA47CCF1737080DD109673C076AB3A7DF0B18239AD95D72331B1570E7B10E5 ====

2004 - VA - Пиратская Станция 3 (Русская Версия) [RR-00091]

Продолжительность: 01:11:3301. Bad M.F. feat. Bad Girl - Let It Be (Proket Remix) [07:06]
02. 303 Project - Make Some Noise [06:48]
03. Sky - Kiss My Eyes (VIP Verison) [05:52]
04. SLK - Showbizne$ [04:23]
05. Blasta - Love Me [05:50]
06. Deezel feat. 63 Region - Bitch [05:12]
07. Skyform - Don't Be Quiet [05:45]
08. Bad M.F. Feat. Bad Girl - Night And Day (SLK Remix) [02:14]
09. Up In Smoke - Yo Guns Go Pau [05:23]
10. T. Half - Method [05:25]
11. Dissident & Cryo - Pop-Art [05:44]
12. E:Beat - Chance To Have A Chance (Art D.Jay Remix) [05:47]
13. Мистер Малой & Tru Kupchino Badman$ - Буду Погибать Молодым 2004 (VIP Version) [06:10]

Log

Exact Audio Copy V1.1 from 23. June 2015EAC extraction logfile from 25. September 2015, 23:49Various / Пиратская Станция 3 (Russian Version)Used drive  : ASUS    SDRW-08D2S-U   Adapter: 1  ID: 0Read mode               : SecureUtilize accurate stream : YesDefeat audio cache      : YesMake use of C2 pointers : NoRead offset correction                      : 6Overread into Lead-In and Lead-Out          : NoFill up missing offset samples with silence : YesDelete leading and trailing silent blocks   : NoNull samples used in CRC calculations       : YesUsed interface                              : Native Win32 interface for Win NT & 2000Used output format              : User Defined EncoderSelected bitrate                : 32 kBit/sQuality                         : HighAdd ID3 tag                     : NoCommand line compressor         : C:\Exact Audio Copy [installed]\Flac\flac.exeAdditional command line options : -V -8 -T "Date=%year%" -T "COMMENT=ripped by Andy aka yetiisyou" -T "Genre=%genre%" %source%TOC of the extracted CD     Track |   Start  |  Length  | Start sector | End sector    ---------------------------------------------------------        1  |  0:00.00 |  7:05.07 |         0    |    31881        2  |  7:05.07 |  6:47.21 |     31882    |    62427        3  | 13:52.28 |  5:51.63 |     62428    |    88815        4  | 19:44.16 |  4:22.39 |     88816    |   108504        5  | 24:06.55 |  5:49.24 |    108505    |   134703        6  | 29:56.04 |  5:11.65 |    134704    |   158093        7  | 35:07.69 |  5:44.51 |    158094    |   183944        8  | 40:52.45 |  2:13.10 |    183945    |   193929        9  | 43:05.55 |  5:22.32 |    193930    |   218111       10  | 48:28.12 |  5:24.26 |    218112    |   242437       11  | 53:52.38 |  5:43.36 |    242438    |   268198       12  | 59:35.74 |  5:46.18 |    268199    |   294166       13  | 65:22.17 |  6:09.61 |    294167    |   321902Range status and errorsSelected range     Filename E:\!Ripped by Andy aka yetiisyou\Пиратская станция\VA - Пиратская Станция 3 (Русская Версия) [RR-00091] [2004]\Various - Пиратская Станция 3 (Russian Version).wav     Peak level 100.0 %     Extraction speed 4.8 X     Range quality 100.0 %     Test CRC 32A21941     Copy CRC 32A21941     Copy OKNo errors occurredAccurateRip summaryTrack  1  not present in databaseTrack  2  not present in databaseTrack  3  not present in databaseTrack  4  not present in databaseTrack  5  not present in databaseTrack  6  not present in databaseTrack  7  not present in databaseTrack  8  not present in databaseTrack  9  not present in databaseTrack 10  not present in databaseTrack 11  not present in databaseTrack 12  not present in databaseTrack 13  not present in databaseNone of the tracks are present in the AccurateRip databaseEnd of status report---- CUETools DB Plugin V2.1.6[CTDB TOCID: 3SI5KgNetylsDPLp42AHKruMRDk-] foundSubmit result: already submittedTrack | CTDB Status  1   | (3/3) Accurately ripped  2   | (3/3) Accurately ripped  3   | (3/3) Accurately ripped  4   | (3/3) Accurately ripped  5   | (3/3) Accurately ripped  6   | (3/3) Accurately ripped  7   | (3/3) Accurately ripped  8   | (3/3) Accurately ripped  9   | (3/3) Accurately ripped 10   | (3/3) Accurately ripped 11   | (3/3) Accurately ripped 12   | (3/3) Accurately ripped 13   | (3/3) Accurately ripped==== Log checksum 8AC7227EE6EDA786AB0548DFEB48945323F6589657DF4A08D7DDD2D052DD7E97 ====

2004 - VA - Пиратская Станция 3. Mixed by Dj Gvozd [C31083]

Продолжительность: 01:06:0101. Pendulum - Another Planet [03:35]
02. Fresh & Pendulum - Kingston Vampires [01:47]
03. DuMonde - Human (Ill Skillz remix) [05:39]
04. Sunchase - Remember Me (feat. Yana Kay) [05:43]
05. High Contrast - Racing Green [03:34]
06. Phantasy & Shodan - Gimme Da Gal (Drumsound & Bassline Smith remix) [05:21]
07. Primary Motive - Ace Face [03:34]
08. Ill.Skillz & Concord Dawn - Watch Me Now [02:53]
09. DJ Fresh - Living Daylights [02:31]
10. Syncopix - General Hospital [04:56]
11. Future Prophecies - Magnetic [06:23]
12. Calibre & MC Fats - Drop It Down [02:11]
13. Midiman & Sparkz - The Key [02:07]
14. DJ Fresh - Submarines (Pendulum remix) [03:34]
15. Ludacris - Move Bitch (SKC Bootleg) [03:12]
16. The Streets - It's Too Late (High Contrast remix) [02:40]
17. DJ Marky & XRS - Moments of Lust (feat. Victor Duplaix) [03:36]
18. Soundmurderer - Badman [02:53]

Log

Exact Audio Copy V1.1 from 23. June 2015EAC extraction logfile from 26. September 2015, 0:31Пиратская станция 3 / Mixed by Dj GvozdUsed drive  : ASUS    SDRW-08D2S-U   Adapter: 1  ID: 0Read mode               : SecureUtilize accurate stream : YesDefeat audio cache      : YesMake use of C2 pointers : NoRead offset correction                      : 6Overread into Lead-In and Lead-Out          : NoFill up missing offset samples with silence : YesDelete leading and trailing silent blocks   : NoNull samples used in CRC calculations       : YesUsed interface                              : Native Win32 interface for Win NT & 2000Used output format              : User Defined EncoderSelected bitrate                : 32 kBit/sQuality                         : HighAdd ID3 tag                     : NoCommand line compressor         : C:\Exact Audio Copy [installed]\Flac\flac.exeAdditional command line options : -V -8 -T "Date=%year%" -T "COMMENT=ripped by Andy aka yetiisyou" -T "Genre=%genre%" %source%TOC of the extracted CD     Track |   Start  |  Length  | Start sector | End sector    ---------------------------------------------------------        1  |  0:00.00 |  3:34.13 |         0    |    16062        2  |  3:34.13 |  1:46.71 |     16063    |    24083        3  |  5:21.09 |  5:38.19 |     24084    |    49452        4  | 10:59.28 |  5:42.72 |     49453    |    75174        5  | 16:42.25 |  3:33.42 |     75175    |    91191        6  | 20:15.67 |  5:20.58 |     91192    |   115249        7  | 25:36.50 |  3:33.36 |    115250    |   131260        8  | 29:10.11 |  2:52.10 |    131261    |   144170        9  | 32:02.21 |  2:30.61 |    144171    |   155481       10  | 34:33.07 |  4:55.04 |    155482    |   177610       11  | 39:28.11 |  6:22.25 |    177611    |   206285       12  | 45:50.36 |  2:10.51 |    206286    |   216086       13  | 48:01.12 |  2:06.55 |    216087    |   225591       14  | 50:07.67 |  3:33.12 |    225592    |   241578       15  | 53:41.04 |  3:11.43 |    241579    |   255946       16  | 56:52.47 |  2:39.41 |    255947    |   267912       17  | 59:32.13 |  3:35.06 |    267913    |   284043       18  | 63:07.19 |  2:52.70 |    284044    |   297013Range status and errorsSelected range     Filename E:\!Ripped by Andy aka yetiisyou\Пиратская станция\VA - Пиратская Станция 3. Mixed by Dj Gvozd [C 31083] [2004]\Пиратская станция 3 - Mixed by Dj Gvozd.wav     Peak level 96.6 %     Extraction speed 4.5 X     Range quality 100.0 %     Test CRC B71DAC19     Copy CRC B71DAC19     Copy OKNo errors occurredAccurateRip summaryTrack  1  cannot be verified as accurate (confidence 1)  [5E6082AD], AccurateRip returned [2D627CD6]  (AR v2)Track  2  cannot be verified as accurate (confidence 1)  [DE785A27], AccurateRip returned [0FCD7780]  (AR v2)Track  3  cannot be verified as accurate (confidence 1)  [4A658541], AccurateRip returned [71D8D7AA]  (AR v2)Track  4  cannot be verified as accurate (confidence 1)  [80785917], AccurateRip returned [CFA8960E]  (AR v2)Track  5  cannot be verified as accurate (confidence 1)  [2C846B0F], AccurateRip returned [D740D443]  (AR v2)Track  6  cannot be verified as accurate (confidence 1)  [C70BA892], AccurateRip returned [8128538C]  (AR v2)Track  7  cannot be verified as accurate (confidence 1)  [EF472486], AccurateRip returned [4B029E45]  (AR v2)Track  8  cannot be verified as accurate (confidence 1)  [65D55E66], AccurateRip returned [95AAA82C]  (AR v2)Track  9  cannot be verified as accurate (confidence 1)  [70B96F4E], AccurateRip returned [007B2E3A]  (AR v2)Track 10  cannot be verified as accurate (confidence 1)  [58F43B30], AccurateRip returned [56420FCD]  (AR v2)Track 11  cannot be verified as accurate (confidence 1)  [63F7EC6A], AccurateRip returned [D4FBACB0]  (AR v2)Track 12  cannot be verified as accurate (confidence 1)  [D057DD29], AccurateRip returned [15D6928C]  (AR v2)Track 13  cannot be verified as accurate (confidence 1)  [9A411847], AccurateRip returned [91AA9275]  (AR v2)Track 14  cannot be verified as accurate (confidence 1)  [25C5A1C8], AccurateRip returned [4818E1F6]  (AR v2)Track 15  cannot be verified as accurate (confidence 1)  [D28FC797], AccurateRip returned [E94782E3]  (AR v2)Track 16  cannot be verified as accurate (confidence 1)  [38250820], AccurateRip returned [7A8D5E33]  (AR v2)Track 17  cannot be verified as accurate (confidence 1)  [1314175C], AccurateRip returned [778EA0B5]  (AR v2)Track 18  cannot be verified as accurate (confidence 1)  [EBA5F47B], AccurateRip returned [78956983]  (AR v2)No tracks could be verified as accurateYou may have a different pressing from the one(s) in the databaseEnd of status report---- CUETools DB Plugin V2.1.6[CTDB TOCID: nAVjvvOO_gG2CkkAF5dYWIw5ab0-] disk not present in databaseSubmit result: nAVjvvOO_gG2CkkAF5dYWIw5ab0- has been uploaded==== Log checksum 32C9802BACE3F67451124FFF4D7824AA2A1B4BC371B031B834FCB93A4142E3D1 ====

2005 - VA - Пиратская станция IV (Mixed by Dj Gvozd) [RR-00553]

Продолжительность: 01:10:3801. Pendulum - Blood Sugar [02:43]
02. Sub Focus - X-Ray [01:46]
03. The Prodigy - Smack My Bitch Up (Sub Focus remix) [03:58]
04. Dom & Gridlok - Moodswings [03:56]
05. Evol Intent - Flipside (feat. Blip) [02:31]
06. Sub Focus - Frozen Solid [03:24]
07. Chase & Status - Duppy Man [02:20]
08. The Prodigy - Voodoo People (Pendulum remix) [03:56]
09. Noisia, Maldini & Vegas - Meditation [01:37]
10. Shy FX & T Power - Mercy [04:11]
11. Sub Focus - Sound Guy [03:53]
12. Pendulum - Slam [06:10]
13. The Contrast - Days Go By [04:38]
14. Mr. L - Back to Your Roots (feat. Super Fly Seven) [03:34]
15. Adam F - 8 Ball [03:12]
16. Roni Size - No More (feat. Beverley Knight & Dynamite MC) (High Contrast mix) (V) [03:12]
17. DJ Fresh - All That Jazz [03:55]
18. London Elektricity - The Strangest Secret in the World [02:29]
19. Shy FX & T Power - Sheets (feat. Noel MC) [03:46]
20. Shy FX - Plastic Soul [01:38]
21. Roni Size - Dirty Beats [04:00]

Log

Exact Audio Copy V1.1 from 23. June 2015EAC extraction logfile from 14. September 2015, 22:26Mixed by DJ Gvozd / Пиратская Станция IVUsed drive  : ASUS    SDRW-08D2S-U   Adapter: 1  ID: 0Read mode               : SecureUtilize accurate stream : YesDefeat audio cache      : YesMake use of C2 pointers : NoRead offset correction                      : 6Overread into Lead-In and Lead-Out          : NoFill up missing offset samples with silence : YesDelete leading and trailing silent blocks   : NoNull samples used in CRC calculations       : YesUsed interface                              : Native Win32 interface for Win NT & 2000Used output format              : User Defined EncoderSelected bitrate                : 32 kBit/sQuality                         : HighAdd ID3 tag                     : NoCommand line compressor         : C:\Exact Audio Copy [installed]\Flac\flac.exeAdditional command line options : -V -8 -T "Date=%year%" -T "COMMENT=ripped by Andy aka yetiisyou" -T "Genre=%genre%" %source%TOC of the extracted CD     Track |   Start  |  Length  | Start sector | End sector    ---------------------------------------------------------        1  |  0:00.00 |  2:42.18 |         0    |    12167        2  |  2:42.18 |  1:45.64 |     12168    |    20106        3  |  4:28.07 |  3:57.13 |     20107    |    37894        4  |  8:25.20 |  3:55.27 |     37895    |    55546        5  | 12:20.47 |  2:30.28 |     55547    |    66824        6  | 14:51.00 |  3:23.51 |     66825    |    82100        7  | 18:14.51 |  2:19.20 |     82101    |    92545        8  | 20:33.71 |  3:55.70 |     92546    |   110240        9  | 24:29.66 |  1:36.28 |    110241    |   117468       10  | 26:06.19 |  4:10.74 |    117469    |   136292       11  | 30:17.18 |  3:52.02 |    136293    |   153694       12  | 34:09.20 |  6:09.15 |    153695    |   181384       13  | 40:18.35 |  4:37.06 |    181385    |   202165       14  | 44:55.41 |  3:33.01 |    202166    |   218141       15  | 48:28.42 |  3:11.66 |    218142    |   232532       16  | 51:40.33 |  3:11.61 |    232533    |   246918       17  | 54:52.19 |  3:54.16 |    246919    |   264484       18  | 58:46.35 |  2:28.50 |    264485    |   275634       19  | 61:15.10 |  3:45.05 |    275635    |   292514       20  | 65:00.15 |  1:37.64 |    292515    |   299853       21  | 66:38.04 |  3:59.69 |    299854    |   317847Range status and errorsSelected range     Filename E:\!Ripped by Andy aka yetiisyou\VA - Пиратская станция IV (Mixed by Dj Gvozd) [RR-00553] [2005]\Mixed by DJ Gvozd - Пиратская Станция IV.wav     Peak level 96.6 %     Extraction speed 4.8 X     Range quality 99.9 %     Test CRC 967258D2     Copy CRC 967258D2     Copy OKNo errors occurredAccurateRip summaryTrack  1  not present in databaseTrack  2  not present in databaseTrack  3  not present in databaseTrack  4  not present in databaseTrack  5  not present in databaseTrack  6  not present in databaseTrack  7  not present in databaseTrack  8  not present in databaseTrack  9  not present in databaseTrack 10  not present in databaseTrack 11  not present in databaseTrack 12  not present in databaseTrack 13  not present in databaseTrack 14  not present in databaseTrack 15  not present in databaseTrack 16  not present in databaseTrack 17  not present in databaseTrack 18  not present in databaseTrack 19  not present in databaseTrack 20  not present in databaseTrack 21  not present in databaseNone of the tracks are present in the AccurateRip databaseEnd of status report---- CUETools DB Plugin V2.1.6[CTDB TOCID: olWzuZbjUpuz2hnxbK1KkypaNdE-] foundSubmit result: olWzuZbjUpuz2hnxbK1KkypaNdE- has been uploadedTrack | CTDB Status  1   | (3/3) Accurately ripped  2   | (3/3) Accurately ripped  3   | (3/3) Accurately ripped  4   | (3/3) Accurately ripped  5   | (3/3) Accurately ripped  6   | (3/3) Accurately ripped  7   | (3/3) Accurately ripped  8   | (3/3) Accurately ripped  9   | (3/3) Accurately ripped 10   | (3/3) Accurately ripped 11   | (3/3) Accurately ripped 12   | (3/3) Accurately ripped 13   | (2/3) Accurately ripped 14   | (3/3) Accurately ripped 15   | (3/3) Accurately ripped 16   | (3/3) Accurately ripped 17   | (1/3) Accurately ripped, or (1/3) differs in 44 samples @01:57:14,01:57:51,01:58:12-01:58:13,01:58:32,01:58:50,01:58:68-01:58:69,01:59:12,01:59:30-01:59:31,01:59:49,01:59:67-01:59:68 18   | (3/3) Accurately ripped 19   | (3/3) Accurately ripped 20   | (3/3) Accurately ripped 21   | (1/3) Differs in 2115 samples @02:32:64,02:33:09,02:33:29,02:33:49,02:34:34,02:34:54,02:34:74-02:35:00,02:35:20,02:35:39-02:35:40,02:35:60,02:36:05,02:36:25,02:36:45-02:36:46,02:36:65-02:36:66,02:37:10-02:37:11,02:37:30-02:37:31,02:37:50-02:37:51,02:37:70-02:37:71,02:38:15-02:38:16,02:38:35-02:38:36,02:38:56-02:38:57,02:39:01-02:39:02,02:39:21-02:39:22,02:39:41-02:39:42,02:39:61-02:39:62,02:40:06-02:40:07,02:40:26-02:40:27,02:40:46-02:40:47,02:40:66-02:40:67,02:41:11-02:41:12,02:41:32-02:41:33,02:41:52-02:41:53,02:41:72-02:41:73,02:42:17-02:42:18,02:42:37-02:42:38,02:42:57-02:42:58,02:43:02-02:43:03,02:43:22-02:43:23,02:43:42-02:43:43,02:43:63-02:43:64,02:44:08-02:44:09,02:44:28-02:44:29,02:44:48-02:44:49,02:44:68-02:44:69,02:45:13-02:45:14,02:45:33-02:45:34,02:45:53-02:45:54,02:45:74,02:46:19-02:46:20,02:46:39-02:46:40,02:46:59-02:46:60,02:47:04-02:47:05,02:47:24-02:47:25,02:47:44-02:47:45,02:47:64-02:47:65,02:48:09-02:48:10,02:48:30,02:48:50-02:48:51,02:48:70-02:48:71,02:49:15-02:49:16,02:49:35-02:49:36,02:49:55-02:49:56,02:50:00-02:50:01,02:50:20-02:50:21,02:50:41,02:50:61,02:51:06,02:51:26-02:51:27,02:51:46-02:51:47,02:51:66-02:51:67,02:52:11-02:52:12,02:52:32,02:52:52,02:52:72,02:53:37-02:53:38,02:53:57,02:54:02,02:54:23,02:54:43,02:54:63,02:55:68-02:55:69,02:56:74,02:57:19-02:57:20,02:57:59-02:57:60,02:58:25,02:58:45,02:59:30-02:59:31,02:59:51, or (1/3) differs in 1249 samples @02:34:54,02:34:74-02:35:00,02:35:39-02:35:40,02:35:60,02:36:05,02:36:25,02:36:45,02:36:65,02:37:10-02:37:11,02:37:30,02:37:50-02:37:51,02:37:71,02:38:15-02:38:16,02:38:35-02:38:36,02:38:56-02:38:57,02:39:01,02:39:21,02:39:41-02:39:42,02:39:61-02:39:62,02:40:06-02:40:07,02:40:26,02:40:46-02:40:47,02:40:66-02:40:67,02:41:11-02:41:12,02:41:32-02:41:33,02:41:52-02:41:53,02:41:72-02:41:73,02:42:17-02:42:18,02:42:37-02:42:38,02:42:57-02:42:58,02:43:02-02:43:03,02:43:22-02:43:23,02:43:42-02:43:43,02:43:63,02:44:08-02:44:09,02:44:28-02:44:29,02:44:48-02:44:49,02:44:68-02:44:69,02:45:13-02:45:14,02:45:33-02:45:34,02:45:53-02:45:54,02:45:74,02:46:19-02:46:20,02:46:39-02:46:40,02:46:59-02:46:60,02:47:04-02:47:05,02:47:24-02:47:25,02:47:44-02:47:45,02:47:64-02:47:65,02:48:10,02:48:30,02:48:50,02:48:70-02:48:71,02:49:15-02:49:16,02:49:35-02:49:36,02:49:55-02:49:56,02:50:00-02:50:01,02:50:20-02:50:21,02:50:41,02:50:61,02:51:06,02:51:26-02:51:27,02:51:46-02:51:47,02:51:66-02:51:67,02:52:11-02:52:12,02:52:31-02:52:32,02:52:52,02:52:72,02:53:37,02:54:02,02:54:23,02:54:43,02:54:63,02:55:68,02:56:34,02:56:74,02:57:19-02:57:20,02:58:25,02:58:45,02:59:30-02:59:31If you are sure that your rip contains errors, you can use CUETools to repair it.==== Log checksum B68F3052588734900F2CC4C1933FC1FED3FD19B31B0B0D7E3517DF8A2619A831 ====

2005 - VA - Пиратская станция IV (Russian Version) [RR-00554]

Продолжительность: 01:07:4801. Stim Axel - Без Тебя (Снова) [05:04]
02. 303 Project - Winnie The Pooh [04:11]
03. Paralyzah - I Love You [04:22]
04. Skyform vs. Ikambi Gwa Gwa - Midnight (Skyform Rmx) [04:45]
05. Blasta - Listen Up! [04:22]
06. Paul B - Vacuum Explosion [05:06]
07. Jebar - Summer Song (DK Foyer VIP Mix) [04:19]
08. Tapolsky & Red Co - Time 2 Bass [03:44]
09. Stim Axel - Ностальгия [03:26]
10. 303 Project - Creator [05:01]
11. Bes - Lowwin [04:18]
12. Jazzamor - Sai Das (Art D.Jay Remix) [02:32]
13. Purple Unit - Dream Time [03:08]
14. Iggy K - Arabika (Sky Remix) [04:40]
15. Неба Жители - Крылья [04:36]
16. Foboz , Rengoring & Salamandra - Look At Me (Noise Draft Rmx) [04:21]

Log

[pre]Exact Audio Copy V1.1 from 23. June 2015EAC extraction logfile from 26. September 2015, 1:08Various / Пиратская Станция IV (Russian Version)Used drive : ASUS SDRW-08D2S-U Adapter: 1 ID: 0Read mode : SecureUtilize accurate stream : YesDefeat audio cache : YesMake use of C2 pointers : NoRead offset correction : 6Overread into Lead-In and Lead-Out : NoFill up missing offset samples with silence : YesDelete leading and trailing silent blocks : NoNull samples used in CRC calculations : YesUsed interface : Native Win32 interface for Win NT & 2000Used output format : User Defined EncoderSelected bitrate : 32 kBit/sQuality : HighAdd ID3 tag : NoCommand line compressor : C:\Exact Audio Copy [installed]\Flac\flac.exeAdditional command line options : -V -8 -T "Date=%year%" -T "COMMENT=ripped by Andy aka yetiisyou" -T "Genre=%genre%" %source%TOC of the extracted CD Track | Start | Length | Start sector | End sector --------------------------------------------------------- 1 | 0:00.00 | 5:03.74 | 0 | 22798 2 | 5:03.74 | 4:10.60 | 22799 | 41608 3 | 9:14.59 | 4:21.70 | 41609 | 61253 4 | 13:36.54 | 4:44.52 | 61254 | 82605 5 | 18:21.31 | 4:21.24 | 82606 | 102204 6 | 22:42.55 | 5:05.47 | 102205 | 125126 7 | 27:48.27 | 4:18.57 | 125127 | 144533 8 | 32:07.09 | 3:43.64 | 144534 | 161322 9 | 35:50.73 | 3:25.14 | 161323 | 176711 10 | 39:16.12 | 5:00.05 | 176712 | 199216 11 | 44:16.17 | 4:17.55 | 199217 | 218546 12 | 48:33.72 | 2:31.44 | 218547 | 229915 13 | 51:05.41 | 3:07.43 | 229916 | 243983 14 | 54:13.09 | 4:39.05 | 243984 | 264913 15 | 58:52.14 | 4:35.43 | 264914 | 285581 16 | 63:27.57 | 4:20.06 | 285582 | 305087Range status and errorsSelected range Filename E:\!Ripped by Andy aka yetiisyou\Пиратская станция\VA - Пиратская станция IV (Russian Version) [RR-00554] [2005]\Various - Пиратская Станция IV (Russian Version).wav Peak level 100.0 % Extraction speed 4.6 X Range quality 100.0

Для скачки контента: [Установить программу-клиент] и кликнуть по - СкачатьБезопасность: клиент проверен АВ Касперского

[asmlocator.ru].t497429.torrent 
Торрент: Зарегистрирован [ 2018-01-26 13:35 ] · 1BEC2658085597B1A3A18D17273A1DA73001FD9D

Скачать .torrent

Скачать

474 KB

Статус: проверено
Скачан: 0 раз
Размер: 65,45 GB
terms.php
[Профиль] [ЛС]
Показать сообщения:    
Ответить на тему

Текущее время: 17-Окт 19:23

Часовой пояс: UTC ± 0



Вы не можете начинать темы
Вы не можете отвечать на сообщения
Вы не можете редактировать свои сообщения
Вы не можете удалять свои сообщения
Вы не можете голосовать в опросах
Вы не можете прикреплять файлы к сообщениям
Вы можете скачивать файлы