[TR24][BR] Melody Gardot - Live At The Olympia Paris - 2015/2016 (Jazz)

Ответить на тему
Статистика раздачи
Размер:  1,14 GB   |    Зарегистрирован:  6 месяцев 4 дня   |    Скачан:  0 раз

Полного источника не было: 2 месяца 6 дней

 
   
 
 
Автор Сообщение

star21 ®

Пол: Женский

Стаж: 2 года 8 месяцев

Сообщений: 532154

Откуда: Екатеринбург

Создавать темы 13-Янв-2018 22:10

[Цитировать]

Melody Gardot / Live At The Olympia Paris Формат записи/Источник записи: [TR24][BR]
Наличие водяных знаков: Нет
Год издания/переиздания диска: 2015/2016
Жанр: Jazz
Издатель (лейбл): Eagle Rock Entertainment
Продолжительность: 01:41:50
Наличие сканов в содержимом раздачи: Да (сканы)Треклист:01. Don't Misunderstand
02. Same To You
03. She Don't Know
04. Bad News
05. March For Mingus
06. Morning Sun
07. Les Etoiles
08. Baby I'm A Fool
09. Who Will Comfort Me
10. Preacherman
11. It Gonna ComeКонтейнер: FLAC (*.flac)
Тип рипа: tracksРазрядность: 24/48
Формат: LPCM
Количество каналов: 2.0

Лог проверки качества

foobar2000 1.3.16 / Dynamic Range Meter 1.1.1log date: 2018-01-13 19:45:51--------------------------------------------------------------------------------Analyzed: Melody Gardot / Live At The Olympia Paris--------------------------------------------------------------------------------DR         Peak         RMS     Duration Track--------------------------------------------------------------------------------DR13      -0.11 dB   -15.49 dB      6:45 01-Don't MisunderstandDR12      -0.10 dB   -13.17 dB      7:09 02-Same To YouDR12      -0.10 dB   -15.32 dB      6:03 03-She Don't KnowDR14      -0.11 dB   -16.70 dB      7:12 04-Bad NewsDR12      -0.10 dB   -16.34 dB     11:29 05-March For MingusDR12      -0.10 dB   -17.10 dB     13:32 06-Morning SunDR15      -4.34 dB   -23.74 dB      6:48 07-Les EtoilesDR10     -11.43 dB   -25.50 dB      4:42 08-Baby I'm A FoolDR10      -0.10 dB   -12.17 dB      8:23 09-Who Will Comfort MeDR10      -0.10 dB   -15.06 dB     10:24 10-PreachermanDR12      -0.10 dB   -14.08 dB     19:23 11-It Gonna Come--------------------------------------------------------------------------------Number of tracks:  11Official DR value: DR12Samplerate:        48000 HzChannels:          2Bits per sample:   24Bitrate:           2304 kbpsCodec:             PCM================================================================================

Скриншот спектра частот

Источник (релизер):discogs.com anbelk27

Состав

Melody Gardot - Vocal, Guitar, Piano
Mitchell Long - Guitar
Irwin Hall - Saxophones
Shareef Clayton - Trumpet
Korey Riker - Saxophone
Devin Greenwood - Keys
Edwin Livingston - Bass
Chuck Staab - Drums

Об исполнителе (группе)

Melody Gardot (born February 2, 1985) is an American jazz singer whose career began after she was injured in a bicycle accident. She has been influenced by such blues and jazz artists as Judy Garland, Janis Joplin, Miles Davis, Duke Ellington, Stan Getz and George Gershwin as well as Latin music artists such as Caetano Veloso. She has been nominated for a Grammy Award.
Gardot follows the teachings of Buddhism, is a macrobiotic cook and humanitarian.[4]. She is an advocate of music therapy, and has visited hospitals and universities to discuss its benefits for recovery from injury and illness. In 2012, it was reported that she had given her name to a music therapy program in New Jersey. Gardot considers herself a "citizen of the world".

Об альбоме (сборнике)

Live performance from American singer-songwriter Melody Gardot, recorded at Paris's Olympia in October 2015. The intimate show predominantly features songs from her most recent album 'Currency of Man', with the set also including some numbers from her 2009 release 'My One and Only Thrill'.

Для скачки контента: [Установить программу-клиент] и кликнуть по - СкачатьБезопасность: клиент проверен АВ Касперского

[asmlocator.ru].t493701.torrent 
Торрент: Зарегистрирован [ 2018-01-13 22:10 ] · 3418BFF48B45F321E8BD0274859BA740A7B9CE2F

Скачать .torrent

Скачать

13 KB

Статус: проверено
Скачан: 0 раз
Размер: 1,14 GB
terms.php
[Профиль] [ЛС]
Показать сообщения:    
Ответить на тему

Текущее время: 18-Июл 10:55

Часовой пояс: UTC ± 0



Вы не можете начинать темы
Вы не можете отвечать на сообщения
Вы не можете редактировать свои сообщения
Вы не можете удалять свои сообщения
Вы не можете голосовать в опросах
Вы не можете прикреплять файлы к сообщениям
Вы можете скачивать файлы