(Heavy Metal,Thrash Metal) [CD] Exact Division - Be Fair If You Can - 2017, FLAC (image+.cue), lossless

Ответить на тему
Статистика раздачи
Размер:  336 MB   |    Зарегистрирован:  3 месяца 11 дней   |    Скачан:  0 раз

Полного источника не было: Никогда

 
   
 
 
Автор Сообщение

star21 ®

Пол: Не указан

Стаж: 2 года 5 месяцев

Сообщений: 519518

Создавать темы 13-Янв-2018 22:10

[Цитировать]

Exact Division / Be Fair If You Can Жанр: Heavy Metal,Thrash Metal
Носитель: CD
Страна-производитель диска (релиза): Ukraine
Год издания: 2017
Издатель (лейбл): Nocturnus Records
Номер по каталогу: not
Страна исполнителя (группы): Ukraine
Аудиокодек: FLAC (*.flac)
Тип рипа: image+.cue
Битрейт аудио: lossless
Продолжительность: 00:43:12
Источник (релизер): sking019
Наличие сканов в содержимом раздачи: да
Треклист:1 Taking the Black 03:59
2 Live Online 03:47
3 The Deep 04:16
4 War 03:31
5 Dead Soldier 03:48
6 Gold 03:44
7 Dirt Jumper 03:46
8 On Last Night 02:22
9 The Erlking 05:13
10 Legend 03:59
11 Crusade 04:44

Лог создания рипа

Exact Audio Copy V1.1 from 23. June 2015Отчёт EAC об извлечении, выполненном 18. сентября 2017, 19:42Exact Division / Be Fair If You CanДисковод: ASUS    DRW-24F1MT   Adapter: 1  ID: 0Режим чтения                 : ДостоверностьИспользование точного потока : ДаОтключение кэша аудио        : ДаИспользование указателей C2  : НетКоррекция смещения при чтении                     : 6Способность читать области Lead-in и Lead-out     : НетЗаполнение пропущенных сэмплов тишиной            : ДаУдаление блоков с тишиной в начале и конце        : НетПри вычислениях CRC использовались нулевые сэмплы : ДаИнтерфейс                                         : Встроенный Win32-интерфейс для Win NT/2000Выходной формат          : Пользовательский кодировщикВыбранный битрейт        : 1024 kBit/sКачество                 : ВысокийДобавление ID3-тега      : НетУтилита сжатия           : C:\Program Files (x86)\Exact Audio Copy\Flac\flac.exeДополнительные параметры : -V -8 -T "Date=%year%" -T "Genre=%genre%" %source%TOC извлечённого CD     Трек |   Старт  | Длительность | Начальный сектор | Конечный сектор    ---------------------------------------------------------------------       1  |  0:00.00 |    3:59.11   |           0      |      17935       2  |  3:59.11 |    3:46.71   |       17936      |      34956       3  |  7:46.07 |    4:16.00   |       34957      |      54156       4  | 12:02.07 |    3:31.47   |       54157      |      70028       5  | 15:33.54 |    3:48.60   |       70029      |      87188       6  | 19:22.39 |    3:44.22   |       87189      |     104010       7  | 23:06.61 |    3:45.71   |      104011      |     120956       8  | 26:52.57 |    2:22.68   |      120957      |     131674       9  | 29:15.50 |    5:13.52   |      131675      |     155201      10  | 34:29.27 |    3:59.25   |      155202      |     173151      11  | 38:28.52 |    4:44.00   |      173152      |     194451Характеристики диапазона извлечения и сообщения об ошибкахВыбранный диапазон     Имя файла G:\ВСЕ ЗАГРУЗКИ\sking\Exact Division - Be Fair If You Can (2017)\Exact Division - Be Fair If You Can.wav     Пиковый уровень 97.7 %     Скорость извлечения 6.4 X     Качество диапазона 100.0 %     CRC теста 3D70199B     CRC копии 3D70199B     Копирование... OKОшибок не произошлоAccurateRip: сводкаТрек  1  отсутствует в базе данныхТрек  2  отсутствует в базе данныхТрек  3  отсутствует в базе данныхТрек  4  отсутствует в базе данныхТрек  5  отсутствует в базе данныхТрек  6  отсутствует в базе данныхТрек  7  отсутствует в базе данныхТрек  8  отсутствует в базе данныхТрек  9  отсутствует в базе данныхТрек 10  отсутствует в базе данныхТрек 11  отсутствует в базе данныхНи одного трека нет в базе AccurateRipКонец отчёта---- CUETools DB Plugin V2.1.6[CTDB TOCID: X4iUAII4R1tLVNOa.Sg7vRFqSjM-] disk not present in databaseSubmit result: X4iUAII4R1tLVNOa.Sg7vRFqSjM- has been uploaded==== Контрольная сумма отчёта 005E74722BCF965FF146F8E0D78D8FADF7CE44F0B56453D74D83410459436242 ====

Содержание индексной карты (.CUE)

REM GENRE "Heavy Metal"REM DATE 2017REM DISCID 890A200BREM COMMENT "ExactAudioCopy v1.1"PERFORMER "Exact Division"TITLE "Be Fair If You Can"FILE "Exact Division - Be Fair If You Can.flac" WAVE  TRACK 01 AUDIO    TITLE "Taking The Black"    PERFORMER "Exact Division"    FLAGS DCP    INDEX 01 00:00:00  TRACK 02 AUDIO    TITLE "Live Online"    PERFORMER "Exact Division"    FLAGS DCP    INDEX 01 03:59:11  TRACK 03 AUDIO    TITLE "The Deep"    PERFORMER "Exact Division"    FLAGS DCP    INDEX 01 07:46:07  TRACK 04 AUDIO    TITLE "War"    PERFORMER "Exact Division"    FLAGS DCP    INDEX 01 12:02:07  TRACK 05 AUDIO    TITLE "Dead Soldier"    PERFORMER "Exact Division"    FLAGS DCP    INDEX 01 15:33:54  TRACK 06 AUDIO    TITLE "Gold"    PERFORMER "Exact Division"    FLAGS DCP    INDEX 01 19:22:39  TRACK 07 AUDIO    TITLE "Dirt Jumper"    PERFORMER "Exact Division"    FLAGS DCP    INDEX 01 23:06:61  TRACK 08 AUDIO    TITLE "On Last Night"    PERFORMER "Exact Division"    FLAGS DCP    INDEX 01 26:52:57  TRACK 09 AUDIO    TITLE "The Erlking"    PERFORMER "Exact Division"    FLAGS DCP    INDEX 01 29:15:50  TRACK 10 AUDIO    TITLE "Legend"    PERFORMER "Exact Division"    FLAGS DCP    INDEX 01 34:29:27  TRACK 11 AUDIO    TITLE "Crusade"    PERFORMER "Exact Division"    FLAGS DCP    INDEX 01 38:28:52

Об исполнителе (группе)

https://www.metal-archives.com/bands/Exact_Division/3540367246

Об альбоме (сборнике)

http://www.dailymetal.com.ua/exact-division-interview/

Состав


Bass – Roman Zhbadinskiy
Drums – Alex Panov
Guitar – Max Lobanov
Guitar, Lead Vocals – Sergey Smetana

Для скачки контента: [Установить программу-клиент] и кликнуть по - Скачать

[asmlocator.ru].t493698.torrent 
Торрент: Зарегистрирован [ 2018-01-13 22:10 ] · 90628EBA129CF7D151A04FB6E7FF4654884475E7

Скачать .torrent

Скачать

14 KB

Статус: проверено
Скачан: 0 раз
Размер: 336 MB
terms.php
[Профиль] [ЛС]
Показать сообщения:    
Ответить на тему

Текущее время: 25-Апр 01:05

Часовой пояс: UTC ± 0



Вы не можете начинать темы
Вы не можете отвечать на сообщения
Вы не можете редактировать свои сообщения
Вы не можете удалять свои сообщения
Вы не можете голосовать в опросах
Вы не можете прикреплять файлы к сообщениям
Вы можете скачивать файлы