(Classical oratorio) Legrenzi - La morte del cor penitente, 1671 (Andrea Marcon, Roberta Invernizzi, Sonatori della Gioiosa Marca) - 1996, FLAC (image+.cue) lossless

Ответить на тему
Статистика раздачи
Размер:  312 MB   |    Зарегистрирован:  6 месяцев 4 дня   |    Скачан:  0 раз

Полного источника не было: 4 месяца 16 дней

 
   
 
 
Автор Сообщение

star21 ®

Пол: Женский

Стаж: 2 года 8 месяцев

Сообщений: 532154

Откуда: Екатеринбург

Создавать темы 13-Янв-2018 22:10

[Цитировать]

Legrenzi - La morte del cor penitente (Sonatori della Gioiosa Marca) Жанр: Classical oratorio
Страна-производитель диска: Made in Switzerland?
Год издания диска: 1996
Издатель (лейбл): Divox Antiqua
Номер по каталогу: Orfeo ORF019
Дата записи: 1995
Аудиокодек: FLAC
Тип рипа: image+.cue
Битрейт аудио: lossless
Продолжительность: 66:10
Источник: релизер
сайт-источник/ник/другое: Cunctator meeting music, подарок
Наличие сканов в содержимом раздачи: да

Треклист

Parte Prima1 Sinfonia 1:552 Recitativo: "Lumi, Dolenti Lumi" 2:283 Aria: "Sommergete Dell' Alma L'orgoglio" 1:024 Aria: "Care Amate Pupille" 4:035 Aria: "E Pur Non Piangi, O Core?" 2:516 Recitativo: "Pianga Si, Si" 2:477 Arioso: "Clementtissimo Cielo" 2:588 Aria: "Dillo Tu" 2:579 Aria: "Deh Senti Misero" 0:5910 Aria: "Piacer Ti Rifiuto" 0:4711 Aria: "Sù Spiriti Pentiti" 1:1112 Aria: " Non Si Pensi" 1:1613 Recitativo: "Nò Nò Tempra I Furor" 2:4214 Aria: "Se Sperar' Il Cor Non Sà" 1:0415 Aria: "Se La Speme" 1:4016 Aria: "Volgi Pur" 2:1617 Aria: "Se Del Duol" 1:0918 Recitiativo: "Vanne Pur Senza Amor" 1:0719 Aria: "Sel Dal Duol" 1:1820 Recitativo: "Parta Pur La Sperenza" 1:2621 Recitativo: "Or Và, Figlio Costante" 3:5922 Aria: " Non Si Pensi" 1:1623 Madrigale: "Porta Ancor" 2:09Parte Seconda24 Sinfomia 1:0125 Recitativo: "Coltello Di Dolore" 0:4926 Aria: "Care Pene, Dolci Affanni" 5:0427 Coro: ""Siam Qui Pronte" 1:3128 Aria: "Sù Sù Si Mandino" 0:4829 Coro: "Sì Sì Dal Dolore" 0:2930 Aria: "Sù Sù Si Detino" 0:5731 Aria: "Non Più S'accedano" 1:1332 Coro: "Sì Sì Dal Dolore" 0:2933 Recitativo: "Già Già Da Un'improviso" 1:3734 Terzetto: "Venite Alm Dolenti" 3:3535 Aria: "Carta Morte" 1:5036 Coro (Tutti): "Hor Non Ti Vantar Più" 1:43

Треклист 2

1 Part I: Sinfonia  1:552 Lumi dolenti lumi aprite il varco al pianto (Sinner)  2:283 Sommergete dell'Alma l'orgoglio (Sinner)  1:024 Care amate pupille versate, stillate (Sinner)  4:035 E pur non piangi, o core? (Sinner)  2:516 Pianga si, si, che del fallir passato (Penitence, Sinner)  0:477 Clementissimo Cielo, ancor si sebra la su pieta verso un indegno? (Sinner, Penitence)  2:588 Dillo tu, Cor delirante, dillo tu chi t'inganno? (Sinner, Penitence)  2:579 Deh senti Misero quanto sei fragile (Penitence, Sinner)  0:5910 Piacer ti rifiuto t'abborro, ti fuggo (Sinner)  0:4711 Su spiriti pentiti pensieri contriti (Penitence)  1:1112 Non si pensi, ch'a languir, ch'a morir (Sinner)  1:1613 No no tempra il furor, al Ciel clemente basta il voto del Cor, pago e del zelo (Hope, Sinner)  2:4214 Se sperar'il Cor non sa (Hope, Sinner)  1:0415 Se la speme, ch'e stella constante (Hope, Sinner)  1:4016 ogli pur' altrove il passo dolce speme (Sinner, Hope)  2:1617 Se del duol, e non d'amore (Sinner, Hope)  1:0918 Vanne pur senza amor, e senza speme (Hope, Sinner, Penitence)  1:0719 Se dal duol non resti preso vano Cor, e non t'affretti (Penitence, Sinner)  1:1820 Parta pur la speranza, e resti il duolo (Sinner)  1:2621 Or va, Figlio constante (Penitence, Sinner)  3:5922 Non si pensi ch'a penar s'apra scola nel mio petto (Sinner)  1:1623 Porta ancor nel ferire (Madrigale a 5)  2:0924 Part II: Sinfonia  1:0125 Coltello di dolore su traffiggimi il core (Sinner)  0:4926 Care pene, dolci affanni siete amabili tiranni (Sinner)  5:0427 Siam qui pronte (Chorus of Retribution, Sinner)  1:3128 Su su si mandino sospiri, e gemiti (1 Punishment, Sin)  0:4829 Si si dal dolore l'indegno arrogante (Chorus of Retribution)  0:2930 Su su si destino angoscie orribili (1 Punishment, Sinner)  0:5731 Non piu s'accendano faci al goder (1 Punishment, Sinner)  1:1332 Si si dal dolore l'indegno arrogante (Chorus of Retribution)  0:2933 Gia gia da un'improviso turbine procelloso (Sinner)  1:3734 Venite Alme dolenti, venite a lagrimar (Sinner)  3:3535 Cara morte di dolore che uccidento porgi vita (Sinner)  1:5036 Hor non ti vantar piu Divino Amore (All)

Треклист 3

Parte Prima[01] Sinfonia[02] Recitativo (Pec): "Lumi, dolenti lumi"[03] Aria (Pec): "Sommergate dell'Alma l'orgoglio"[04] Aria (Pec): "Care amate pupille"[05] Aria (Pec): "E pur non piangi, o core?"[06] Recitativo (Pec): "Pianga si, si"[07] Arioso (Pec): "Clementissimo Cielo"[08] Aria (Pec): "Dillo tu"[09] Aria (Pec): "Deh senti Misero"[10] Aria (Pec): "Piacer ti rifiuto"[11] Aria (Pec): "Su spirti pentiti"[12] Aria (Pec): "Non si pensi"[13] Recitativo (Pec): "No no tempra il furor"[14] Aria (Pec): "Se sperar' il Cor non sa"[15] Aria (Pec): "Se la speme"[16] Aria (Pec): "Volgi pur"[17] Aria (Pec): "Se del duol"[18] Recitativo (Pec): "Vanne pur la speranza"[19] Aria (Pec): "Se dal duol"[20] Recitativo (Pec): "Parta pur la speranza"[21] Recitativo (Pec): "Or va, Figlio costante"[22] Aria (Pec): "Non si pensi"[23] Madrigale (a 5): "Porta ancor"Parte Seconda[24] Sinfonia[25] Recitativo (Pec): "Coltello di dolore"[26] Aria (Pec): "Care pene, dolci affanni"[27] Coro (Coro di Pene): "Siam qui pronte"[28] Aria (Una della Pene): "Su su si mandino"[29] Coro (Coro di Pene): "Si si dal dolore"[30] Aria (Una della Pene): "Su su si destino"[31] Aria (Una della Pene): "Non piu s'accendano"[32] Coro (Coro di Pene): "Si si dal dolore"[33] Recitativo (Pec): "Gia gia da un'improviso"[34] Terzetto (a 3): "Venite Alme dolenti"[35] Aria (a 3): "Cara morte"[36] Coro (Tutti): "Hor non ti vantar piu"

Исполнители

Giovanni Battista Legrenzi (1626-1690)La morte del cor penitenteOratorio in two parts (1671)Anonymous-LyricistEnsemble – Sonatori De La Gioiosa MarcaSoprano Vocals – Elisabetta De Mircovich, Roberta InvernizziAlto Vocals – Paolo Costa (2)Tenor Vocals – Marco Beasley, Mario CecchettiBass Vocals – Sergio ForestiCello – Walter VestidelloHarpsichord – Andrea MarconLute, Chitarrone – Giancarlo RadoViola – Giovanni Dalla VecchiaViolin – Giorgio Fava, Massimo BattistellaViolone – Giancarlo PavanRecording: Sala del Capitolo del Duomo, Bressanone, 28.-30. June 199520 BIT processingWorld first recordingSources:Music: Österreichische NationalbibliothekLibretto: (Anonymous) Bibliotèca Nazionale, VeneziaRelease Date: 1 Jan. 1996

Лог создания рипа

Exact Audio Copy V1.0 beta 3 from 29. August 2011EAC extraction logfile from 27. September 2016, 13:16Cecchetti, Invernizzi, De Mircovich, Sonatori de la Gioiosa Marca / Legrenzi - La morte del cor penitenteUsed drive  : hp      DVD-RAM UJ8D1   Adapter: 0  ID: 0Read mode               : SecureUtilize accurate stream : YesDefeat audio cache      : YesMake use of C2 pointers : NoRead offset correction                      : 6Overread into Lead-In and Lead-Out          : NoFill up missing offset samples with silence : YesDelete leading and trailing silent blocks   : NoNull samples used in CRC calculations       : YesUsed interface                              : Native Win32 interface for Win NT & 2000Used output format              : User Defined EncoderSelected bitrate                : 768 kBit/sQuality                         : HighAdd ID3 tag                     : NoCommand line compressor         : C:\Program Files (x86)\Exact Audio Copy\FLAC\FLAC.EXEAdditional command line options : -8 -V -T "ARTIST=%artist%" -T "TITLE=%title%" -T "ALBUM=%albumtitle%" -T "DATE=%year%" -T "TRACKNUMBER=%tracknr%" -T "GENRE=%genre%" -T "PERFORMER=%albuminterpret%" -T "COMPOSER=%composer%" %haslyrics%--tag-from-file=LYRICS="%lyricsfile%"%haslyrics% -T "ALBUMARTIST=%albumartist%" -T "DISCNUMBER=%cdnumber%" -T "TOTALDISCS=%totalcds%" -T "TOTALTRACKS=%numtracks%" -T "COMMENT=%comment%" %source% -o %dest%TOC of the extracted CD     Track |   Start  |  Length  | Start sector | End sector    ---------------------------------------------------------        1  |  0:00.30 |  1:54.07 |        30    |     8586        2  |  1:54.37 |  2:27.37 |      8587    |    19648        3  |  4:21.74 |  1:02.26 |     19649    |    24324        4  |  5:24.25 |  4:03.70 |     24325    |    42619        5  |  9:28.20 |  2:49.71 |     42620    |    55365        6  | 12:18.16 |  2:48.09 |     55366    |    67974        7  | 15:06.25 |  2:57.34 |     67975    |    81283        8  | 18:03.59 |  2:56.41 |     81284    |    94524        9  | 21:00.25 |  0:59.12 |     94525    |    98961       10  | 21:59.37 |  0:46.69 |     98962    |   102480       11  | 22:46.31 |  1:12.34 |    102481    |   107914       12  | 23:58.65 |  1:14.36 |    107915    |   113500       13  | 25:13.26 |  2:42.48 |    113501    |   125698       14  | 27:55.74 |  1:03.22 |    125699    |   130445       15  | 28:59.21 |  1:41.10 |    130446    |   138030       16  | 30:40.31 |  2:14.54 |    138031    |   148134       17  | 32:55.10 |  1:09.35 |    148135    |   153344       18  | 34:04.45 |  1:07.42 |    153345    |   158411       19  | 35:12.12 |  1:17.74 |    158412    |   164260       20  | 36:30.11 |  1:26.68 |    164261    |   170778       21  | 37:57.04 |  3:59.38 |    170779    |   188741       22  | 41:56.42 |  1:13.48 |    188742    |   194264       23  | 43:10.15 |  2:07.58 |    194265    |   203847       24  | 45:17.73 |  1:02.03 |    203848    |   208500       25  | 46:20.01 |  0:49.56 |    208501    |   212231       26  | 47:09.57 |  5:03.47 |    212232    |   235003       27  | 52:13.29 |  1:31.53 |    235004    |   241881       28  | 53:45.07 |  0:48.16 |    241882    |   245497       29  | 54:33.23 |  0:28.71 |    245498    |   247668       30  | 55:02.19 |  0:57.18 |    247669    |   251961       31  | 55:59.37 |  1:11.48 |    251962    |   257334       32  | 57:11.10 |  0:29.25 |    257335    |   259534       33  | 57:40.35 |  1:39.70 |    259535    |   267029       34  | 59:20.30 |  3:34.49 |    267030    |   283128       35  | 62:55.04 |  1:48.20 |    283129    |   291248       36  | 64:43.24 |  1:45.59 |    291249    |   299182Range status and errorsSelected range     Filename C:\cunctator\Legrenzi - La morte del cor penitente - Sonatori de la Gioiosa Marca.wav     Peak level 88.7 %     Extraction speed 2.2 X     Range quality 100.0 %     Test CRC 91932DDB     Copy CRC 91932DDB     Copy OKNo errors occurredAccurateRip summaryTrack  1  accurately ripped (confidence 5)  [26599064]  (AR v2)Track  2  accurately ripped (confidence 5)  [F42B6865]  (AR v2)Track  3  accurately ripped (confidence 5)  [DC659FA5]  (AR v2)Track  4  accurately ripped (confidence 5)  [563D896C]  (AR v2)Track  5  accurately ripped (confidence 5)  [3BE55DC6]  (AR v2)Track  6  accurately ripped (confidence 5)  [E4E7F497]  (AR v2)Track  7  accurately ripped (confidence 5)  [B8E613E4]  (AR v2)Track  8  accurately ripped (confidence 5)  [3C6A6210]  (AR v2)Track  9  accurately ripped (confidence 5)  [93ED4AD4]  (AR v2)Track 10  accurately ripped (confidence 5)  [24A4744C]  (AR v2)Track 11  accurately ripped (confidence 5)  [ADCB5FA9]  (AR v2)Track 12  accurately ripped (confidence 5)  [FE83AD4C]  (AR v2)Track 13  accurately ripped (confidence 5)  [260B10B0]  (AR v2)Track 14  accurately ripped (confidence 5)  [881355DE]  (AR v2)Track 15  accurately ripped (confidence 5)  [DCAE1AFF]  (AR v2)Track 16  accurately ripped (confidence 5)  [A9BF1EB6]  (AR v2)Track 17  accurately ripped (confidence 5)  [2BDE12C0]  (AR v2)Track 18  accurately ripped (confidence 5)  [D5346EC8]  (AR v2)Track 19  accurately ripped (confidence 5)  [85EFF1D1]  (AR v2)Track 20  accurately ripped (confidence 5)  [B0DC8F72]  (AR v2)Track 21  accurately ripped (confidence 5)  [AB56D959]  (AR v2)Track 22  accurately ripped (confidence 6)  [7F567EAA]  (AR v2)Track 23  accurately ripped (confidence 5)  [52B19DAD]  (AR v2)Track 24  accurately ripped (confidence 6)  [D1A8BA01]  (AR v2)Track 25  accurately ripped (confidence 5)  [57B1A555]  (AR v2)Track 26  accurately ripped (confidence 5)  [8F01B3F0]  (AR v2)Track 27  accurately ripped (confidence 5)  [A0D851BE]  (AR v2)Track 28  accurately ripped (confidence 5)  [A245A496]  (AR v2)Track 29  accurately ripped (confidence 5)  [F0FD4895]  (AR v2)Track 30  accurately ripped (confidence 5)  [1A202B7B]  (AR v2)Track 31  accurately ripped (confidence 5)  [41AA292E]  (AR v2)Track 32  accurately ripped (confidence 6)  [19D2C351]  (AR v2)Track 33  accurately ripped (confidence 5)  [A72394E2]  (AR v2)Track 34  accurately ripped (confidence 5)  [EAC21CD2]  (AR v2)Track 35  accurately ripped (confidence 5)  [4715501E]  (AR v2)Track 36  accurately ripped (confidence 5)  [3BE2E4C8]  (AR v2)All tracks accurately rippedEnd of status report==== Log checksum B7172C9EC0B9D8FEF016C452228AC6BFC46420633A795049A38906F028573E26 ====

Содержание индексной карты (.CUE)

REM GENRE ClassicalREM DATE 1996REM DISCID 040F9524REM COMMENT "ExactAudioCopy v1.0b3"PERFORMER "Cecchetti, Invernizzi, De Mircovich, Sonatori de la Gioiosa Marca"TITLE "Legrenzi - La morte del cor penitente"FILE "Legrenzi - La morte del cor penitente - Sonatori de la Gioiosa Marca.flac" WAVE  TRACK 01 AUDIO    TITLE "Parte I - Sinfonia"    PERFORMER "Cecchetti, Invernizzi, De Mircovich, Sonatori de la Gioiosa Marca"    INDEX 00 00:00:00    INDEX 01 00:00:30  TRACK 02 AUDIO    TITLE "Parte I - Peccatore-Sinner. Lumi, dolenti lumi (Recitativo)"    PERFORMER "Cecchetti, Invernizzi, De Mircovich, Sonatori de la Gioiosa Marca"    INDEX 01 01:54:37  TRACK 03 AUDIO    TITLE "Parte I - Peccatore-Sinner. Sommergete dell'Alma l'orgoglio (Aria)"    PERFORMER "Cecchetti, Invernizzi, De Mircovich, Sonatori de la Gioiosa Marca"    INDEX 01 04:21:74  TRACK 04 AUDIO    TITLE "Parte I - Peccatore-Sinner. Care amate pupille (Aria)"    PERFORMER "Cecchetti, Invernizzi, De Mircovich, Sonatori de la Gioiosa Marca"    INDEX 01 05:24:25  TRACK 05 AUDIO    TITLE "Parte I - Peccatore-Sinner. E pur non piangi, o core? (Aria)"    PERFORMER "Cecchetti, Invernizzi, De Mircovich, Sonatori de la Gioiosa Marca"    INDEX 01 09:28:20  TRACK 06 AUDIO    TITLE "Parte I - Penitenza-Penitence, Peccatore-Sinner. Pianga sм, sм (Recitativo)"    PERFORMER "Cecchetti, Invernizzi, De Mircovich, Sonatori de la Gioiosa Marca"    INDEX 01 12:18:16  TRACK 07 AUDIO    TITLE "Parte I - Peccatore-Sinner. Clementissimo Cielo (Arioso)"    PERFORMER "Cecchetti, Invernizzi, De Mircovich, Sonatori de la Gioiosa Marca"    INDEX 01 15:06:25  TRACK 08 AUDIO    TITLE "Parte I - Peccatore-Sinner. Dillo tu (Aria)"    PERFORMER "Cecchetti, Invernizzi, De Mircovich, Sonatori de la Gioiosa Marca"    INDEX 01 18:03:59  TRACK 09 AUDIO    TITLE "Parte I - Penitenza-Penitence. Deh senti Misero (Aria)"    PERFORMER "Cecchetti, Invernizzi, De Mircovich, Sonatori de la Gioiosa Marca"    INDEX 01 21:00:25  TRACK 10 AUDIO    TITLE "Parte I - Peccatore-Sinner. Piacer ti rifiuto (Aria)"    PERFORMER "Cecchetti, Invernizzi, De Mircovich, Sonatori de la Gioiosa Marca"    INDEX 01 21:59:37  TRACK 11 AUDIO    TITLE "Parte I - Penitenza-Penitence. Su spirti pentiti (Aria)"    PERFORMER "Cecchetti, Invernizzi, De Mircovich, Sonatori de la Gioiosa Marca"    INDEX 01 22:46:31  TRACK 12 AUDIO    TITLE "Parte I - Peccatore-Sinner. Non si pensi (Aria)"    PERFORMER "Cecchetti, Invernizzi, De Mircovich, Sonatori de la Gioiosa Marca"    INDEX 01 23:58:65  TRACK 13 AUDIO    TITLE "Parte I - Speranza-Hope. No no tempra il furor (Recitativo)"    PERFORMER "Cecchetti, Invernizzi, De Mircovich, Sonatori de la Gioiosa Marca"    INDEX 01 25:13:26  TRACK 14 AUDIO    TITLE "Parte I - Speranza-Hope. Se sperar il Cor non sa (Aria)"    PERFORMER "Cecchetti, Invernizzi, De Mircovich, Sonatori de la Gioiosa Marca"    INDEX 01 27:55:74  TRACK 15 AUDIO    TITLE "Parte I - Speranza-Hope. Se la speme (Aria)"    PERFORMER "Cecchetti, Invernizzi, De Mircovich, Sonatori de la Gioiosa Marca"    INDEX 01 28:59:21  TRACK 16 AUDIO    TITLE "Parte I - Peccatore-Sinner. Volgi pur (Aria)"    PERFORMER "Cecchetti, Invernizzi, De Mircovich, Sonatori de la Gioiosa Marca"    INDEX 01 30:40:31  TRACK 17 AUDIO    TITLE "Parte I - Peccatore-Sinner. Se del duol (Aria)"    PERFORMER "Cecchetti, Invernizzi, De Mircovich, Sonatori de la Gioiosa Marca"    INDEX 01 32:55:10  TRACK 18 AUDIO    TITLE "Parte I - Speranza, Peccatore, Penitenza. Vanne pur senza amor (Recitativo)"    PERFORMER "Cecchetti, Invernizzi, De Mircovich, Sonatori de la Gioiosa Marca"    INDEX 01 34:04:45  TRACK 19 AUDIO    TITLE "Parte I - Penitenza-Penitence. Se dal duol (Aria)"    PERFORMER "Cecchetti, Invernizzi, De Mircovich, Sonatori de la Gioiosa Marca"    INDEX 01 35:12:12  TRACK 20 AUDIO    TITLE "Parte I - Peccatore-Sinner. Parta pur la speranza (Recitativo)"    PERFORMER "Cecchetti, Invernizzi, De Mircovich, Sonatori de la Gioiosa Marca"    INDEX 01 36:30:11  TRACK 21 AUDIO    TITLE "Parte I - Penitenza-Penitence. Or va, Figlio costante (Recitativo)"    PERFORMER "Cecchetti, Invernizzi, De Mircovich, Sonatori de la Gioiosa Marca"    INDEX 01 37:57:04  TRACK 22 AUDIO    TITLE "Parte I - Peccatore-Sinner. Non si pensi (Aria)"    PERFORMER "Cecchetti, Invernizzi, De Mircovich, Sonatori de la Gioiosa Marca"    INDEX 01 41:56:42  TRACK 23 AUDIO    TITLE "Parte I - A 5. Porta ancor (Madrigale)"    PERFORMER "Cecchetti, Invernizzi, De Mircovich, Sonatori de la Gioiosa Marca"    INDEX 01 43:10:15  TRACK 24 AUDIO    TITLE "Parte II - Sinfonia"    PERFORMER "Cecchetti, Invernizzi, De Mircovich, Sonatori de la Gioiosa Marca"    INDEX 01 45:17:73  TRACK 25 AUDIO    TITLE "Parte II - Peccatore-Sinner. Coltello di dolore (Recitativo)"    PERFORMER "Cecchetti, Invernizzi, De Mircovich, Sonatori de la Gioiosa Marca"    INDEX 01 46:20:01  TRACK 26 AUDIO    TITLE "Parte II - Peccatore-Sinner. Care pene, dolci affanni (Aria)"    PERFORMER "Cecchetti, Invernizzi, De Mircovich, Sonatori de la Gioiosa Marca"    INDEX 01 47:09:57  TRACK 27 AUDIO    TITLE "Parte II - Coro di Pene-Chorus of Retribution. Siam qui pronte (Coro)"    PERFORMER "Cecchetti, Invernizzi, De Mircovich, Sonatori de la Gioiosa Marca"    INDEX 01 52:13:29  TRACK 28 AUDIO    TITLE "Parte II - Una delle Pene-One punishment. Su su si mandino (Aria)"    PERFORMER "Cecchetti, Invernizzi, De Mircovich, Sonatori de la Gioiosa Marca"    INDEX 01 53:45:07  TRACK 29 AUDIO    TITLE "Parte II - Coro di Pene-Chorus of Retribution. Sм sм dal dolore (Coro)"    PERFORMER "Cecchetti, Invernizzi, De Mircovich, Sonatori de la Gioiosa Marca"    INDEX 01 54:33:23  TRACK 30 AUDIO    TITLE "Parte II - Una delle Pene-One punishment. Su su si destino (Aria)"    PERFORMER "Cecchetti, Invernizzi, De Mircovich, Sonatori de la Gioiosa Marca"    INDEX 01 55:02:19  TRACK 31 AUDIO    TITLE "Parte II - Una delle Pene-One punishment. Non piu s'accendano (Aria)"    PERFORMER "Cecchetti, Invernizzi, De Mircovich, Sonatori de la Gioiosa Marca"    INDEX 01 55:59:37  TRACK 32 AUDIO    TITLE "Parte II - Coro di Pene-Chorus of Retribution. Sм sм dal dolore (Coro)"    PERFORMER "Cecchetti, Invernizzi, De Mircovich, Sonatori de la Gioiosa Marca"    INDEX 01 57:11:10  TRACK 33 AUDIO    TITLE "Parte II - Peccatore-Sinner. Giа giа da un improviso (Recitativo)"    PERFORMER "Cecchetti, Invernizzi, De Mircovich, Sonatori de la Gioiosa Marca"    INDEX 01 57:40:35  TRACK 34 AUDIO    TITLE "Parte II - A 3. Venite Alme dolenti (Terzetto)"    PERFORMER "Cecchetti, Invernizzi, De Mircovich, Sonatori de la Gioiosa Marca"    INDEX 01 59:20:30  TRACK 35 AUDIO    TITLE "Parte II - A 3. Cara morte (Aria)"    PERFORMER "Cecchetti, Invernizzi, De Mircovich, Sonatori de la Gioiosa Marca"    INDEX 01 62:55:04  TRACK 36 AUDIO    TITLE "Parte II - Tutti. Hor non ti vantar piщ (Coro)"    PERFORMER "Cecchetti, Invernizzi, De Mircovich, Sonatori de la Gioiosa Marca"    INDEX 01 64:43:24

Рецензия от издателя

Giovanni Maria Legrenzi (1626-1690), composer and choirmaster of San Marco in Venice, was praised by his contemporaries as a 'true source of music and living oracle of harmony'. Daring to disregard the laws of composition in favor of 'grace and charm', he composed operas and oratorios in addition to his instrumental works. Of the eight known Legrenzi oratorios only three complete works have been preserved. 'La Morte del cor penitente' was probably written in 1671 for the Venetian church 'Santa Maria della Consolazione' where Legrenzi was choirmaster from the year 1670 to 1690. In the period of the Counter Reformation, a highly explosive theme was described: that of the spiritual path of the sinner, who through repentance can redress his misdeeds against God and attempt to regain his damaged honor. The annonymous author of the text conjures the image of this inner journey in many poetic pictures, and Legrenzi translates the theme to a succession of affected Arias, Duets and Recitatives in a powerful and melodic design.

Для скачки контента: [Установить программу-клиент] и кликнуть по - СкачатьБезопасность: клиент проверен АВ Касперского

[asmlocator.ru].t493691.torrent 
Торрент: Зарегистрирован [ 2018-01-13 22:10 ] · 539AAD40E31055C67C40709DC89EB7B5B3B6DAC0

Скачать .torrent

Скачать

13 KB

Статус: проверено
Скачан: 0 раз
Размер: 312 MB
terms.php
[Профиль] [ЛС]
Показать сообщения:    
Ответить на тему

Текущее время: 18-Июл 10:53

Часовой пояс: UTC ± 0



Вы не можете начинать темы
Вы не можете отвечать на сообщения
Вы не можете редактировать свои сообщения
Вы не можете удалять свои сообщения
Вы не можете голосовать в опросах
Вы не можете прикреплять файлы к сообщениям
Вы можете скачивать файлы