Любимый во Франксе / Darling in the Frankxx (Нисигори Ацуси) [TV] [01 из 24] [Без хардсаба] [JAP+SUB] [2018, Приключения, WEBRip] [1080p]

Ответить на тему
Статистика раздачи
Размер:  857 MB   |    Зарегистрирован:  10 дней   |    Скачан:  0 раз

Полного источника не было: 8 дней

 
   
 
 
Автор Сообщение

star21 ®

Пол: Не указан

Стаж: 2 года 2 месяца

Сообщений: 354172

Создавать темы 13-Янв-2018 22:10

[Цитировать]

Любимый во Франксе / Darling in the Frankxx Страна: Япония
Год выпуска: 2018
Жанр: Приключения.
Тип: TV
Продолжительность: 24 эп. по 25 мин
Режиссер: Нисигори Ацуси
Студия: Trigger \ A-1 PicturesПеревод:
Русские субтитры от Crunchyroll | Внешние.Описание: В далёком будущем от планеты осталась только выжженная пустыня, по которой движется оплот цивилизации, город-плантация. Внутри него скрывается Омела — уголок природы, где как в клетке, живут дети, нужные только для того, чтобы подниматься в небо и сражаться с драконами. Но Хиро ни на что не годен. Он не годится для этого, и не только не справился сам, но и утянул за собой свою драгоценную партнёршу. Хиро был готов опустить руки, но встреча с загадочной незнакомкой, которую все вокруг так боятся, заново разожгла в нём жажду жить. Какой мир откроет ему та, что назвала его любимым?Качество: WEBRip
Тип релиза: Без хардсаба
Формат видео: MKV
Релиз/Автор рипа: Erai-raws
Видео: x264 (8bit), 1920x1080, ~4864 Kbps, 23.976 fps
Аудио JAP: AAC, 44.1Hz, ~128Kbps, 2ch

Подробные тех. данные

GeneralUnique ID : 197765809891588478901485907925686448808 (0x94C84F3D0169C713A1631BB06DCA72A8)Complete name : D:\ANIME\[Erai-raws] Darling in the Frankxx [1080]\[Erai-raws] Darling in the FranXX - 01 [1080p].mkvFormat : MatroskaFormat version : Version 4 / Version 2File size : 857 MiBDuration : 24 min 0 sOverall bit rate : 4 994 kb/sEncoded date : UTC 2018-01-13 18:04:08Writing application : mkvmerge v17.0.0 ('Be Ur Friend') 64-bitWriting library : libebml v1.3.5 + libmatroska v1.4.8VideoID : 1Format : AVCFormat/Info : Advanced Video CodecFormat profile : High@L4Format settings, CABAC : YesFormat settings, RefFrames : 4 framesCodec ID : V_MPEG4/ISO/AVCDuration : 24 min 0 sBit rate : 4 864 kb/sWidth : 1 920 pixelsHeight : 1 080 pixelsDisplay aspect ratio : 16:9Frame rate mode : ConstantFrame rate : 23.976 (24000/1001) FPSColor space : YUVChroma subsampling : 4:2:0Bit depth : 8 bitsScan type : ProgressiveBits/(Pixel*Frame) : 0.098Stream size : 835 MiB (97%)Writing library : x264 core 142Encoding settings : cabac=1 / ref=4 / deblock=1:1:1 / analyse=0x3:0x113 / me=umh / subme=8 / psy=1 / psy_rd=0.40:0.00 / mixed_ref=1 / me_range=16 / chroma_me=1 / trellis=1 / 8x8dct=1 / cqm=0 / deadzone=21,11 / fast_pskip=1 / chroma_qp_offset=-2 / threads=12 / lookahead_threads=2 / sliced_threads=0 / nr=0 / decimate=1 / interlaced=0 / bluray_compat=0 / constrained_intra=0 / bframes=3 / b_pyramid=2 / b_adapt=2 / b_bias=0 / direct=3 / weightb=1 / open_gop=0 / weightp=2 / keyint=48 / keyint_min=24 / scenecut=40 / intra_refresh=0 / rc_lookahead=48 / rc=crf / mbtree=1 / crf=15.0 / qcomp=0.60 / qpmin=0 / qpmax=69 / qpstep=4 / vbv_maxrate=8000 / vbv_bufsize=12000 / crf_max=0.0 / nal_hrd=none / filler=0 / ip_ratio=1.40 / aq=1:0.60Default : YesForced : NoAudioID : 2Format : AACFormat/Info : Advanced Audio CodecFormat profile : LCCodec ID : A_AACDuration : 24 min 0 sBit rate : 128 kb/sChannel(s) : 2 channelsChannel positions : Front: L RSampling rate : 44.1 kHzFrame rate : 43.066 FPS (1024 SPF)Compression mode : LossyStream size : 22.0 MiB (3%)Default : YesForced : No

Список эпизодов

01. Hitori to Hitori \ Один и одна

Скриншоты

Для скачки контента: [Установить программу-клиент] и кликнуть по - Скачать

[asmlocator.ru].t493675.torrent 
Торрент: Зарегистрирован [ 2018-01-13 22:10 ] · 7086F76FD6D0CC6BA187C57FE66E1A0947B35C97

Скачать .torrent

Скачать

17 KB

Статус: проверено
Скачан: 0 раз
Размер: 857 MB
terms.php
[Профиль] [ЛС]
Показать сообщения:    
Ответить на тему

Текущее время: 24-Янв 07:37

Часовой пояс: UTC ± 0



Вы не можете начинать темы
Вы не можете отвечать на сообщения
Вы не можете редактировать свои сообщения
Вы не можете удалять свои сообщения
Вы не можете голосовать в опросах
Вы не можете прикреплять файлы к сообщениям
Вы можете скачивать файлы