Смешарики. Новые приключения / Сезон: Серии: 1-57 из 69 (Денис Чернов) [2012-2014, Россия, комедия, приключения, семейный, DVDRemux]

Ответить на тему
Статистика раздачи
Размер:  20,09 GB   |    Зарегистрирован:  9 месяцев 4 дня   |    Скачан:  0 раз

Полного источника не было: Никогда

 
   
 
 
Автор Сообщение

star21 ®

Пол: Женский

Стаж: 2 года 11 месяцев

Сообщений: 552946

Откуда: Екатеринбург

Создавать темы 13-Янв-2018 22:10

[Цитировать]

Смешарики. Новые приключения / Смешарики Страна: Россия
Жанр: комедия, приключения, семейный
Продолжительность серии: ~10 мин.
Год выпуска: 2012-2014
Перевод: Отсутствует
Русские субтитры: нетРежиссёр: Денис Чернов
Роли озвучивали: Антон Виноградов, Владимир Постников, Вадим Бочанов, Светлана Письмиченко, Ксения Бржезовская, Михаил Черняк, Сергей МардарьОписание: Смешарики — стилизованные круглые зверушки. Каждый из девяти смешариков обладает своим индивидуальным характером и областью интересов, среди них нет отрицательных персонажей. Сюжеты построены на неожиданных ситуациях, с которыми сталкиваются мультгерои в процессе общения и игр. Часто эти ситуации, особенно возникающие в ходе общения, воспроизводят реальные проблемы, с которыми может столкнуться ребёнок в своей повседневной жизни. Смешарики разделены на 2 возрастные категории: детей (Крош, Ёжик, Нюша, Бараш) и взрослых(Копатыч, Совунья, Лосяш, Кар-Карыч, Пин). Большое внимание создатели сериала уделили юмору. Шарообразность персонажей, по мнению авторов, подчёркивают их доброжелательность и позволяет легко нарисовать их даже ребёнку.Доп. информация: Спасибо Сме_ша_рик за исходникУже вышли 12 новых серий, но они еще выпущены на DVD поэтому - ждем появления DVD.Качество: DVDRemux
Формат: MKV
Видео: MPEG2, 720x576, (16:9) 25.000 fps, ≈7000 kbps
Аудио: AC3 Dolby Digital 2.0, 48 KHz, 224 kbps
Субтитры: отсутствуют

Подробные технические данные

ОбщееУникальный идентификатор                 : 191905876660668609024651468622292423387 (0x905FBA3946B9A319611FF9C42E0D92DB)Полное имя                               : D:\Фильмы\Smeshariki.Novye.priklucheniya.DVDRemux\10.Я завтрашний, я вчерашний.mkvФормат                                   : MatroskaВерсия формата                           : Version 2Размер файла                             : 241 МбайтПродолжительность                        : 6 м. 29 с.Режим общего битрейта                    : ПеременныйОбщий поток                              : 5188 Кбит/секДата кодирования                         : UTC 2017-12-26 17:37:16Программа кодирования                    : MakeMKV v1.10.4 win(x64-release)Библиотека кодирования                   : libmakemkv v1.10.4 (1.3.3/1.4.4) win(x64-release)Носитель оригинала                       : DVD-VideoВидеоИдентификатор                            : 1ID in the original source medium         : 224 (0xE0)Формат                                   : MPEG VideoВерсия формата                           : Version 2Профиль формата                          : Main@MainПараметр BVOP формата                    : ДаПараметр матрицы формата                 : По умолчаниюПараметр GOP формата                     : M=3, N=12Структура изображения                    : FrameИдентификатор кодека                     : V_MPEG2Идентификатор кодека/Информация          : MPEG 1 or 2 VideoПродолжительность                        : 6 м. 29 с.Вид битрейта                             : ПеременныйБитрейт                                  : 4959 Кбит/секМаксимальный битрейт                     : 7000 Кбит/секШирина                                   : 720 пикселейВысота                                   : 576 пикселейСоотношение сторон                       : 16:9Режим частоты кадров                     : ПостоянныйЧастота кадров                           : 25,000 кадров/секСтандарт вещания                         : PALЦветовое пространство                    : YUVСубдискретизация насыщенности            : 4:2:0Битовая глубина                          : 8 битТип развёртки                            : ЧересстрочнаяПорядок развёртки                        : Нижнее поле первоеМетод сжатия                             : С потерямиБит/(Пиксели*Кадры)                      : 0.478Временной код первого кадра              : 00:00:00:00Оригинал временного кода                 : Group of pictures headerGOP, открыто/закрыто                     : ЗакрытоРазмер потока                            : 230 Мбайт (96%)Язык                                     : EnglishDefault                                  : НетForced                                   : НетАудиоИдентификатор                            : 2ID in the original source medium         : 189 (0xBD)-128 (0x80)Формат                                   : AC-3Формат/Информация                        : Audio Coding 3Расширение режима                        : CM (complete main)Параметр Endianness формата              : BigИдентификатор кодека                     : A_AC3Продолжительность                        : 6 м. 29 с.Вид битрейта                             : ПостоянныйБитрейт                                  : 224 Кбит/секКаналы                                   : 2 каналаРасположение каналов                     : Front: L RЧастота                                  : 48,0 КГцЧастота кадров                           : 31,250 кадров/сек (1536 spf)Битовая глубина                          : 16 битМетод сжатия                             : С потерямиРазмер потока                            : 10,4 Мбайт (4%)Заголовок                                : StereoЯзык                                     : EnglishDefault                                  : ДаForced                                   : НетМеню00:00:00.080                             : en:Chapter 0100:00:19.280                             : en:Chapter 02

Скриншоты

Предыдущие и альтернативные раздачи

Для скачки контента: [Установить программу-клиент] и кликнуть по - СкачатьБезопасность: клиент проверен АВ Касперского

[asmlocator.ru].t493671.torrent 
Торрент: Зарегистрирован [ 2018-01-13 22:10 ] · 9879476C82066D4587C505169AFA37B5F94AAFC9

Скачать .torrent

Скачать

105 KB

Статус: проверено
Скачан: 0 раз
Размер: 20,09 GB
terms.php
[Профиль] [ЛС]
Показать сообщения:    
Ответить на тему

Текущее время: 18-Окт 01:51

Часовой пояс: UTC ± 0



Вы не можете начинать темы
Вы не можете отвечать на сообщения
Вы не можете редактировать свои сообщения
Вы не можете удалять свои сообщения
Вы не можете голосовать в опросах
Вы не можете прикреплять файлы к сообщениям
Вы можете скачивать файлы