Окно во двор / Rear Window (Джефф Блекнер / Jeff Bleckner) [1998, США, Триллер, драма, криминал, детектив, DVDRip] MVO + Original Eng

Ответить на тему
Статистика раздачи
Размер:  1,49 GB   |    Зарегистрирован:  10 дней   |    Скачан:  0 раз

Полного источника не было: Никогда

 
   
 
 
Автор Сообщение

star21 ®

Пол: Не указан

Стаж: 2 года 2 месяца

Сообщений: 354172

Создавать темы 13-Янв-2018 22:10

[Цитировать]

Окно во двор / Rear Window«Who's watching who?» Страна: США
Жанр: Триллер, драма, криминал, детектив
Год выпуска: 1998
Продолжительность: 01:25:45Перевод: Профессиональный (многоголосый закадровый)
Субтитры: нет
Оригинальная аудиодорожка: английскийРежиссер: Джефф Блекнер / Jeff BlecknerВ ролях: Кристофер Рив, Дэрил Ханна, Роберт Форстер, Рубен Сантьяго-Хадсон, Энн Твоми, Ричи Костер, Эллисон Маки, Али Марш, Джули Баркер, Мэгги Кили...Описание: Парализованный архитектор Джейсон Кемп прикован к инвалидному креслу и редко покидает пределы своей квартиры. Единственное развлечение для него - наблюдать через окно жизнь других людей. Однажды, глядя в это самое окно, он становится очевидцем убийства, совершённого в квартире напротив.
Однако показаниям Джейсона не очень доверяет скептически настроенный детектив Мур. Он считает, что у парализованного архитектора просто разыгралось воображение... Лишенный поддержки со стороны полиции, Джейсон Кемп принимает решение раскрыть тайну квартиры напротив самостоятельно. Он копает глубже и глубже и оказывается вовлеченным в странную и опасную игру в кошки-мышки.Доп. информация: Ремейк одноименного фильма А.Хичкока 1954 года...
Дорожка MVO из релиза на тру, синхронизирована и наложена ale_x2008 при помощи Adobe Audition, Sony Vegas и VirtualDubMod. Новый видеоряд (исходник - DVD5). За предоставленный исходник (DVD5) благодарим SUPERDVD01Релиз Сэмпл: https://yadi.sk/i/aaZiXX5I3RRgv3Качество видео: DVDRip
Формат видео: AVIВидео: XviD build 73, 720x544 (1.32:1), 25 fps, 2081 kbps avg, 0.21 bit/pixel
Аудио: AC3 Dolby Digital, 48000Hz, 2/0 (L,R) ch (mono), 192.00 kbps avg
Аудио 2: AC3 Dolby Digital, 48000Hz, 2/0 (L,R) ch, 192.00 kbps avg

MediaInfo

Окно во двор - Rear Window (by ale_x2008).aviFormat                      : AVIFormat/Info                 : Audio Video InterleaveFile size                   : 1.49 GiBDuration                    : 1 h 25 minOverall bit rate            : 2 480 kb/sMovie name                  : Окно во двор - Rear Window (by ale_x2008)Director                    : by ale_x2008Writing application         : VirtualDubMod 1.5.10.2 (build 2540/release)Copyright                   : Edich2Comment                     : RuTracker.orgVideoID                          : 0Format                      : MPEG-4 VisualFormat profile              : Advanced Simple@L5Format settings, BVOP       : 2Format settings, QPel       : NoFormat settings, GMC        : No warppointsFormat settings, Matrix     : CustomCodec ID                    : XVIDCodec ID/Hint               : XviDDuration                    : 1 h 25 minBit rate                    : 2 082 kb/sWidth                       : 720 pixelsHeight                      : 544 pixelsDisplay aspect ratio        : 4:3Frame rate                  : 25.000 FPSColor space                 : YUVChroma subsampling          : 4:2:0Bit depth                   : 8 bitsScan type                   : ProgressiveCompression mode            : LossyBits/(Pixel*Frame)          : 0.213Stream size                 : 1.25 GiB (84%)Writing library             : XviD 73Audio #1ID                          : 1Format                      : AC-3Format/Info                 : Audio Coding 3Codec ID                    : 2000Duration                    : 1 h 25 minBit rate mode               : ConstantBit rate                    : 192 kb/sChannel(s)                  : 2 channelsSampling rate               : 48.0 kHzCompression mode            : LossyStream size                 : 118 MiB (8%)Alignment                   : Split accross interleavesInterleave, duration        : 40  ms (1.00 video frame)Interleave, preload duratio : 500  msAudio #2ID                          : 2Format                      : AC-3Format/Info                 : Audio Coding 3Codec ID                    : 2000Duration                    : 1 h 25 minBit rate mode               : ConstantBit rate                    : 192 kb/sChannel(s)                  : 2 channelsSampling rate               : 48.0 kHzCompression mode            : LossyStream size                 : 118 MiB (8%)Alignment                   : Split accross interleavesInterleave, duration        : 40  ms (1.00 video frame)Interleave, preload duratio : 500  ms

Скриншоты

Для скачки контента: [Установить программу-клиент] и кликнуть по - Скачать

[asmlocator.ru].t493661.torrent 
Торрент: Зарегистрирован [ 2018-01-13 22:10 ] · 72307A2ACD5E9473541660C466E263B03B1FDB00

Скачать .torrent

Скачать

15 KB

Статус: проверено
Скачан: 0 раз
Размер: 1,49 GB
terms.php
[Профиль] [ЛС]
Показать сообщения:    
Ответить на тему

Текущее время: 24-Янв 07:42

Часовой пояс: UTC ± 0



Вы не можете начинать темы
Вы не можете отвечать на сообщения
Вы не можете редактировать свои сообщения
Вы не можете удалять свои сообщения
Вы не можете голосовать в опросах
Вы не можете прикреплять файлы к сообщениям
Вы можете скачивать файлы