Иней / Frost (Шарунас Бартас / Sharunas Bartas) [2017, Литва, Франция, Украина, Польша, Драма, WEBRip] Original + Sub Rus

Ответить на тему
Статистика раздачи
Размер:  1,73 GB   |    Зарегистрирован:  10 дней   |    Скачан:  0 раз

Полного источника не было: Никогда

 
   
 
 
Автор Сообщение

star21 ®

Пол: Не указан

Стаж: 2 года 2 месяца

Сообщений: 354172

Создавать темы 13-Янв-2018 22:10

[Цитировать]

Иней / Frost Страна: Литва, Франция, Украина, Польша
Жанр: Драма
Год выпуска: 2017
Продолжительность: 01:55:00Перевод: Субтитры (Константин Ломов)
Субтитры: русские
Оригинальная аудиодорожка: литовский, русский, украинскийРежиссер: Шарунас Бартас / Sharunas BartasВ ролях: Анджей Хыра, Ванесса Паради, Вероника РозатиОписание: Рохас должен помочь другу перевести гуманитарную помощь из Литвы в село Карловка, расположенное около самой гущи боевых действий между донецкими сепаратистами и украинской армией. Это так называемая серая зона — нейтральная полоса для противоборствующих сил. В путь он отправляется на фургоне, прихватив с собой девушку Ингу, не говорящую по-русски. В дороге они встречают французских журналистов. Усталая, недовольная Рохасом Инга изменяет ему со связным, курирующим доставку — неопрятным мужчиной за сорок с редеющими волосами. Но это лишь маленькая размолвка перед действительно опасным этапом их путешествия, ведь скоро они приблизятся к расположению украинской армии.Сэмпл: http://multi-up.com/1105757Качество видео: WEBRip
Формат видео: MP4Видео: 1980 Кбит/сек, 1280*720 (16:9), в 25,000 кадров/сек, AVC (High@L3.1) (CABAC / 4 Ref Frames)
Аудио: 192 Кбит/сек, 44,1 КГц, 2 канала, AAC (LC)
Формат субтитров: hardsub (неотключаемые)

MediaInfo

ОбщееПолное имя                               : D:\Frost.mp4Формат                                   : MPEG-4Профиль формата                          : Base MediaИдентификатор кодека                     : isom (isom/iso2/avc1/mp41)Размер файла                             : 1,73 ГбайтПродолжительность                        : 1 ч. 55 м.Общий поток                              : 2149 Кбит/секПрограмма кодирования                    : Lavf57.83.100ВидеоИдентификатор                            : 1Формат                                   : AVCФормат/Информация                        : Advanced Video CodecПрофиль формата                          : High@L3.1Настройки формата                        : CABAC / 4 Ref FramesПараметр CABAC формата                   : ДаПараметр RefFrames формата               : 4 кадраИдентификатор кодека                     : avc1Идентификатор кодека/Информация          : Advanced Video CodingПродолжительность                        : 1 ч. 55 м.Битрейт                                  : 1980 Кбит/секШирина                                   : 1280 пикселейВысота                                   : 720 пикселейСоотношение сторон                       : 16:9Режим частоты кадров                     : ПостоянныйЧастота кадров                           : 25,000 кадров/секЦветовое пространство                    : YUVСубдискретизация насыщенности            : 4:2:0Битовая глубина                          : 8 битТип развёртки                            : ПрогрессивнаяБит/(Пиксели*Кадры)                      : 0.086Размер потока                            : 1,57 Гбайт (91%)Библиотека кодирования                   : x264 core 148Настройки программы                      : cabac=1 / ref=2 / deblock=1:0:0 / analyse=0x3:0x113 / me=hex / subme=6 / psy=1 / psy_rd=1.00:0.00 / mixed_ref=1 / me_range=16 / chroma_me=1 / trellis=1 / 8x8dct=1 / cqm=0 / deadzone=21,11 / fast_pskip=1 / chroma_qp_offset=-2 / threads=6 / lookahead_threads=1 / sliced_threads=0 / nr=0 / decimate=1 / interlaced=0 / bluray_compat=0 / constrained_intra=0 / bframes=3 / b_pyramid=2 / b_adapt=1 / b_bias=0 / direct=1 / weightb=1 / open_gop=0 / weightp=1 / keyint=250 / keyint_min=25 / scenecut=40 / intra_refresh=0 / rc_lookahead=30 / rc=2pass / mbtree=1 / bitrate=1980 / ratetol=1.0 / qcomp=0.60 / qpmin=0 / qpmax=69 / qpstep=4 / cplxblur=20.0 / qblur=0.5 / vbv_maxrate=1980 / vbv_bufsize=3960 / nal_hrd=none / filler=0 / ip_ratio=1.40 / aq=1:1.00АудиоИдентификатор                            : 2Формат                                   : AACФормат/Информация                        : Advanced Audio CodecПрофиль формата                          : LCИдентификатор кодека                     : mp4a-40-2Продолжительность                        : 1 ч. 55 м.Вид битрейта                             : ПостоянныйБитрейт                                  : 192 Кбит/секКаналы                                   : 2 каналаРасположение каналов                     : Front: L RЧастота                                  : 44,1 КГцЧастота кадров                           : 43,066 кадра/сек (1024 SPF)Метод сжатия                             : С потерямиРазмер потока                            : 158 Мбайт (9%)Default                                  : ДаAlternateGroup/String                    : 1

Скриншот c названием фильма

Скриншоты

Для скачки контента: [Установить программу-клиент] и кликнуть по - Скачать

[asmlocator.ru].t493658.torrent 
Торрент: Зарегистрирован [ 2018-01-13 22:10 ] · A70FB1A2CBFC529A1E91C0B280352206216CFDA1

Скачать .torrent

Скачать

18 KB

Статус: проверено
Скачан: 0 раз
Размер: 1,73 GB
terms.php
[Профиль] [ЛС]
Показать сообщения:    
Ответить на тему

Текущее время: 24-Янв 07:38

Часовой пояс: UTC ± 0



Вы не можете начинать темы
Вы не можете отвечать на сообщения
Вы не можете редактировать свои сообщения
Вы не можете удалять свои сообщения
Вы не можете голосовать в опросах
Вы не можете прикреплять файлы к сообщениям
Вы можете скачивать файлы