(American Primitivism) [CD] Raphael Roginski - Plays John Coltrane and Langston Hughes. African Mystic Music - 2015, FLAC (tracks+.cue), lossless

Ответить на тему
Статистика раздачи
Размер:  168 MB   |    Зарегистрирован:  6 месяцев 4 дня   |    Скачан:  0 раз

Полного источника не было: Никогда

 
   
 
 
Автор Сообщение

star21 ®

Пол: Женский

Стаж: 2 года 8 месяцев

Сообщений: 532154

Откуда: Екатеринбург

Создавать темы 13-Янв-2018 19:30

[Цитировать]

Raphael Rogiński
"Plays John Coltrane and Langston Hughes. African Mystic Music"
Страна исполнителя (рожд.) – Germany
Жанр альбома – American Primitivism
Label – Bôłt Records (Poland) / BR POP13
Аудио – FLAC / tracks+cue / lossless / CD
Источник рипа – Redacted.ch CREDITS –
Raphael Rogiński – guitars
Natalia Przybysz – voice
TRACK LISTING (00:39:57)
01. Blue Train (05:48)
02. Equinox (05:17)
03. Lonnie's Lament (05:17)
04. Walkers With the Dawn (02:42)
05. Mr. PC (03:08)
06. Countdown (03:17)
07. The Negro Speaks of Rivers (02:06)
08. Grand Central (02:58)
09. Seraphic Light (04:31)
10. Naima (04:58)released – 2015

⚫ Сканов в раздаче нет

l o g

Exact Audio Copy V1.3 from 2. September 2016EAC extraction logfile from 1. November 2017, 13:53Raphael Rogiński / Plays John Coltrane and Langston Hughes. African mystic musicUsed drive  : ATAPI   iHAS124   B   Adapter: 1  ID: 0Read mode               : SecureUtilize accurate stream : YesDefeat audio cache      : YesMake use of C2 pointers : NoRead offset correction                      : 6Overread into Lead-In and Lead-Out          : NoFill up missing offset samples with silence : YesDelete leading and trailing silent blocks   : NoNull samples used in CRC calculations       : YesUsed interface                              : Native Win32 interface for Win NT & 2000Gap handling                                : Appended to previous trackUsed output format              : User Defined EncoderSelected bitrate                : 128 kBit/sQuality                         : HighAdd ID3 tag                     : NoCommand line compressor         : C:\Program Files (x86)\Exact Audio Copy\Flac\flac.exeAdditional command line options : -8 -e -V -T "ARTIST=%artist%" -T "TITLE=%title%" -T "ALBUM=%albumtitle%" -T "DATE=%year%" -T "TRACKNUMBER=%tracknr%" -T "GENRE=%genre%" -T "PERFORMER=%albuminterpret%" -T "COMPOSER=%composer%" %haslyrics%--tag-from-file=LYRICS="%lyricsfile%"%haslyrics% -T "ALBUMARTIST=%albumartist%" -T "DISCNUMBER=%cdnumber%" -T "TOTALDISCS=%totalcds%" -T "TOTALTRACKS=%numtracks%" -T "COMMENT=%comment%" %source% -o %dest%TOC of the extracted CD     Track |   Start  |  Length  | Start sector | End sector    ---------------------------------------------------------        1  |  0:00.00 |  5:47.55 |         0    |    26079        2  |  5:47.55 |  5:16.22 |     26080    |    49801        3  | 11:04.02 |  5:16.51 |     49802    |    73552        4  | 16:20.53 |  2:41.53 |     73553    |    85680        5  | 19:02.31 |  3:07.22 |     85681    |    99727        6  | 22:09.53 |  3:16.02 |     99728    |   114429        7  | 25:25.55 |  2:05.20 |    114430    |   123824        8  | 27:31.00 |  2:57.36 |    123825    |   137135        9  | 30:28.36 |  4:30.43 |    137136    |   157428       10  | 34:59.04 |  4:57.46 |    157429    |   179749Track  1     Filename D:\RIPS\Raphael Roginski - Plays John Coltrane and Langston Hughes - African mystic music (2017) [FLAC]\01 - Blue Train.wav     Pre-gap length  0:00:02.00     Peak level 100.0 %     Extraction speed 3.3 X     Track quality 99.9 %     Test CRC 107487DD     Copy CRC 107487DD     Accurately ripped (confidence 1)  [57C1E80A]  (AR v2)     Copy OKTrack  2     Filename D:\RIPS\Raphael Roginski - Plays John Coltrane and Langston Hughes - African mystic music (2017) [FLAC]\02 - Equinox.wav     Pre-gap length  0:00:04.21     Peak level 100.0 %     Extraction speed 3.2 X     Track quality 99.9 %     Test CRC 1A5DC206     Copy CRC 1A5DC206     Accurately ripped (confidence 1)  [824F55D9]  (AR v2)     Copy OKTrack  3     Filename D:\RIPS\Raphael Roginski - Plays John Coltrane and Langston Hughes - African mystic music (2017) [FLAC]\03 - Lonnie's Lament.wav     Pre-gap length  0:00:03.64     Peak level 88.2 %     Extraction speed 3.5 X     Track quality 99.9 %     Test CRC 3AF83826     Copy CRC 3AF83826     Accurately ripped (confidence 1)  [BC0AD515]  (AR v2)     Copy OKTrack  4     Filename D:\RIPS\Raphael Roginski - Plays John Coltrane and Langston Hughes - African mystic music (2017) [FLAC]\04 - Walkers With The Dawn.wav     Pre-gap length  0:00:03.48     Peak level 99.9 %     Extraction speed 4.6 X     Track quality 100.0 %     Test CRC FA8823F1     Copy CRC FA8823F1     Accurately ripped (confidence 1)  [58B05A11]  (AR v2)     Copy OKTrack  5     Filename D:\RIPS\Raphael Roginski - Plays John Coltrane and Langston Hughes - African mystic music (2017) [FLAC]\05 - Mr. P. C..wav     Pre-gap length  0:00:01.06     Peak level 100.0 %     Extraction speed 4.9 X     Track quality 100.0 %     Test CRC 8EC97BB6     Copy CRC 8EC97BB6     Accurately ripped (confidence 1)  [188957D5]  (AR v2)     Copy OKTrack  6     Filename D:\RIPS\Raphael Roginski - Plays John Coltrane and Langston Hughes - African mystic music (2017) [FLAC]\06 - Countdown.wav     Pre-gap length  0:00:03.96     Peak level 71.1 %     Extraction speed 5.2 X     Track quality 100.0 %     Test CRC 4905E6A2     Copy CRC 4905E6A2     Accurately ripped (confidence 1)  [D78FA8E9]  (AR v2)     Copy OKTrack  7     Filename D:\RIPS\Raphael Roginski - Plays John Coltrane and Langston Hughes - African mystic music (2017) [FLAC]\07 - The Negro Speaks Of Rivers.wav     Pre-gap length  0:00:03.70     Peak level 88.2 %     Extraction speed 4.9 X     Track quality 100.0 %     Test CRC 1C6646DD     Copy CRC 1C6646DD     Accurately ripped (confidence 1)  [AB9A88A1]  (AR v2)     Copy OKTrack  8     Filename D:\RIPS\Raphael Roginski - Plays John Coltrane and Langston Hughes - African mystic music (2017) [FLAC]\08 - Grand Central.wav     Peak level 97.6 %     Extraction speed 5.5 X     Track quality 100.0 %     Test CRC 2BFC7992     Copy CRC 2BFC7992     Accurately ripped (confidence 1)  [2EBF7BC4]  (AR v2)     Copy OKTrack  9     Filename D:\RIPS\Raphael Roginski - Plays John Coltrane and Langston Hughes - African mystic music (2017) [FLAC]\09 - Seraphic Light.wav     Pre-gap length  0:00:01.66     Peak level 88.2 %     Extraction speed 4.8 X     Track quality 99.9 %     Test CRC BCCE7899     Copy CRC BCCE7899     Accurately ripped (confidence 1)  [02654105]  (AR v2)     Copy OKTrack 10     Filename D:\RIPS\Raphael Roginski - Plays John Coltrane and Langston Hughes - African mystic music (2017) [FLAC]\10 - Naima.wav     Peak level 78.2 %     Extraction speed 6.4 X     Track quality 100.0 %     Test CRC CFF12989     Copy CRC CFF12989     Accurately ripped (confidence 1)  [12718879]  (AR v2)     Copy OKAll tracks accurately rippedNo errors occurredEnd of status report---- CUETools DB Plugin V2.1.6[CTDB TOCID: 9Bmmn89Pcm.GMtN2Xq3xq.uVy74-] foundSubmit result: 9Bmmn89Pcm.GMtN2Xq3xq.uVy74- has been confirmedTrack | CTDB Status  1   | (6/6) Accurately ripped  2   | (6/6) Accurately ripped  3   | (6/6) Accurately ripped  4   | (6/6) Accurately ripped  5   | (6/6) Accurately ripped  6   | (6/6) Accurately ripped  7   | (6/6) Accurately ripped  8   | (6/6) Accurately ripped  9   | (6/6) Accurately ripped 10   | (6/6) Accurately ripped==== Log checksum F5FD1A635F8C3EDFF396CB817276B8EC0475827EBB666C88E21E77C21510F5E3 ====

. c u e

REM GENRE "American Primitivism"REM DATE 2015REM DISCID 77095C0AREM COMMENT "ExactAudioCopy v1.3"PERFORMER "Raphael Rogiński"TITLE "Plays John Coltrane and Langston Hughes. African Mystic Music"FILE "01. Blue Train.wav" WAVE  TRACK 01 AUDIO    TITLE "Blue Train"    PERFORMER "Raphael Rogiński"    INDEX 01 00:00:00  TRACK 02 AUDIO    TITLE "Equinox"    PERFORMER "Raphael Rogiński"    INDEX 00 05:43:39FILE "02. Equinox.wav" WAVE    INDEX 01 00:00:00  TRACK 03 AUDIO    TITLE "Lonnie's Lament"    PERFORMER "Raphael Rogiński"    INDEX 00 05:12:49FILE "03. Lonnie's Lament.wav" WAVE    INDEX 01 00:00:00  TRACK 04 AUDIO    TITLE "Walkers With the Dawn"    PERFORMER "Raphael Rogiński"    INDEX 00 05:13:15FILE "04. Walkers With the Dawn.wav" WAVE    INDEX 01 00:00:00  TRACK 05 AUDIO    TITLE "Mr. PC"    PERFORMER "Raphael Rogiński"    INDEX 00 02:40:48FILE "05. Mr. PC.wav" WAVE    INDEX 01 00:00:00  TRACK 06 AUDIO    TITLE "Countdown"    PERFORMER "Raphael Rogiński"    INDEX 00 03:03:25FILE "06. Countdown.wav" WAVE    INDEX 01 00:00:00  TRACK 07 AUDIO    TITLE "The Negro Speaks of Rivers"    PERFORMER "Raphael Rogiński"    INDEX 00 03:12:24FILE "07. The Negro Speaks of Rivers.wav" WAVE    INDEX 01 00:00:00FILE "08. Grand Central.wav" WAVE  TRACK 08 AUDIO    TITLE "Grand Central"    PERFORMER "Raphael Rogiński"    INDEX 01 00:00:00  TRACK 09 AUDIO    TITLE "Seraphic Light"    PERFORMER "Raphael Rogiński"    INDEX 00 02:55:61FILE "09. Seraphic Light.wav" WAVE    INDEX 01 00:00:00FILE "10. Naima.wav" WAVE  TRACK 10 AUDIO    TITLE "Naima"    PERFORMER "Raphael Rogiński"    INDEX 01 00:00:00

Для скачки контента: [Установить программу-клиент] и кликнуть по - СкачатьБезопасность: клиент проверен АВ Касперского

[asmlocator.ru].t493614.torrent 
Торрент: Зарегистрирован [ 2018-01-13 19:30 ] · 468267E33331B9B85833064B42E7EE3FF21E90A6

Скачать .torrent

Скачать

14 KB

Статус: проверено
Скачан: 0 раз
Размер: 168 MB
terms.php
[Профиль] [ЛС]
Показать сообщения:    
Ответить на тему

Текущее время: 18-Июл 10:57

Часовой пояс: UTC ± 0



Вы не можете начинать темы
Вы не можете отвечать на сообщения
Вы не можете редактировать свои сообщения
Вы не можете удалять свои сообщения
Вы не можете голосовать в опросах
Вы не можете прикреплять файлы к сообщениям
Вы можете скачивать файлы