Огонь камина - впечатления / Kaminfeuer Impressionen / Fire Place Impressions [2007, США, развлекательный, документальный, DVD5]

Ответить на тему
Статистика раздачи
Размер:  3,07 GB   |    Зарегистрирован:  6 месяцев 4 дня   |    Скачан:  0 раз

Полного источника не было: Никогда

 
   
 
 
Автор Сообщение

star21 ®

Пол: Женский

Стаж: 2 года 8 месяцев

Сообщений: 532154

Откуда: Екатеринбург

Создавать темы 13-Янв-2018 19:30

[Цитировать]

Огонь камина - впечатления / Kaminfeuer Impressionen / Fireplace Impressions Страна: США
Жанр: развлекательный, документальный
Год выпуска: 2007
Продолжительность: 01:01:34Описание: Что вы включаете "для фона" когда встречаетесь с друзьями? Скорее всего, музыку. Попробуйте это - поставьте этот диск в Ваш ДВД-плеер. Никаких титров, текстов, заставок и прочего - просто камин, а в нем горят и потрескивают дрова, и искры летят...
Натуральные съемки - никаких спецэффектов, никакой "любительщины", съемки профессиональные.
Когда камин догорит, переход к только загорающемуся камину совершенно незаметный. Таким образом можете наслаждаться тем, чего у вас нет, бесконечно.
Три вида каминов, музыкальное сопровождение или просто потрескивание горящих поленьев - на Ваш выбор. Наслаждайтесь!Меню: есть, немецкоеТип релиза: DVD5
Контейнер: DVD-VideoВидео: PAL 4:3 (720x576(0.627)) MPEG Video, 25,000 кадр/сек, 6500 Кбит/сек
Аудио: (Dolby AC-3, 2 ch) 192 Кбит/сек, 48.0 КГц
Аудио 2: (Dolby AC-3, 2 ch) 224 Кбит/сек, 48.0 КГц

MediaInfo

Общее
Полное имя : Kaminfeuer\VIDEO_TS\VTS_01_1.VOB
Формат : MPEG-PS
Размер файла : 1024 Мбайт
Продолжительность : 20 м. 21 с.
Режим общего битрейта : Постоянный
Общий поток : 7031 Кбит/секВидео
Идентификатор : 224 (0xE0)
Формат : MPEG Video
Версия формата : Version 2
Профиль формата : Main@Main
Настройки формата : CustomMatrix / BVOP
Параметр BVOP формата : Да
Параметр матрицы формата : Выборочная
Параметр GOP формата : M=3, N=15
Структура изображения : Frame
Продолжительность : 20 м. 21 с.
Вид битрейта : Постоянный
Битрейт : 6500 Кбит/сек
Ширина : 720 пикселей
Высота : 576 пикселей
Соотношение сторон : 4:3
Частота кадров : 25,000 кадров/сек
Стандарт вещания : PAL
Цветовое пространство : YUV
Субдискретизация насыщенности : 4:2:0
Битовая глубина : 8 бит
Тип развёртки : Чересстрочная
Порядок развёртки : Верхнее поле первое
Метод сжатия : С потерями
Бит/(Пиксели*Кадры) : 0.627
Временной код первого кадра : 01:00:00:00
Оригинал временного кода : Group of pictures header
GOP, открыто/закрыто : Закрыто
Размер потока : 943 Мбайт (92%)Аудио #1
Идентификатор : 189 (0xBD)-128 (0x80)
Формат : AC-3
Формат/Информация : Audio Coding 3
Режим смешивания : DVD-Video
Продолжительность : 20 м. 21 с.
Вид битрейта : Постоянный
Битрейт : 192 Кбит/сек
Каналы : 2 канала
Расположение каналов : Front: L R
Частота : 48,0 КГц
Частота кадров : 31,250 кадров/сек (1536 SPF)
Битовая глубина : 16 бит
Метод сжатия : С потерями
Размер потока : 28,0 Мбайт (3%)
ServiceKind/String : Complete MainАудио #2
Идентификатор : 189 (0xBD)-129 (0x81)
Формат : AC-3
Формат/Информация : Audio Coding 3
Режим смешивания : DVD-Video
Продолжительность : 20 м. 21 с.
Вид битрейта : Постоянный
Битрейт : 224 Кбит/сек
Каналы : 2 канала
Расположение каналов : Front: L R
Частота : 48,0 КГц
Частота кадров : 31,250 кадров/сек (1536 SPF)
Битовая глубина : 16 бит
Метод сжатия : С потерями
Размер потока : 32,6 Мбайт (3%)
ServiceKind/String : Complete Main

Скриншоты меню

Скриншоты

Для скачки контента: [Установить программу-клиент] и кликнуть по - СкачатьБезопасность: клиент проверен АВ Касперского

[asmlocator.ru].t493573.torrent 
Торрент: Зарегистрирован [ 2018-01-13 19:30 ] · 019E9A1BAD648E6C6972D4A9241242F7C4348427

Скачать .torrent

Скачать

17 KB

Статус: проверено
Скачан: 0 раз
Размер: 3,07 GB
terms.php
[Профиль] [ЛС]
Показать сообщения:    
Ответить на тему

Текущее время: 18-Июл 10:53

Часовой пояс: UTC ± 0



Вы не можете начинать темы
Вы не можете отвечать на сообщения
Вы не можете редактировать свои сообщения
Вы не можете удалять свои сообщения
Вы не можете голосовать в опросах
Вы не можете прикреплять файлы к сообщениям
Вы можете скачивать файлы