Зайчик (Леонид Быков) [1964, СССР, лирическая комедия, DVB] [Реставрация "Крупный план"]

Ответить на тему
Статистика раздачи
Размер:  1,33 GB   |    Зарегистрирован:  10 дней   |    Скачан:  0 раз

Полного источника не было: 6 дней

 
   
 
 
Автор Сообщение

star21 ®

Пол: Не указан

Стаж: 2 года 2 месяца

Сообщений: 354172

Создавать темы 13-Янв-2018 15:20

[Цитировать]

Зайчик [Реставрация "Крупный план"] Страна: СССР
Жанр: лирическая комедия
Год выпуска: 1964
Продолжительность: 01:22:17Субтитры: нетРежиссер: Леонид Быков
В ролях: Леонид Быков, Ольга Красина, Игорь Горбачёв, Сергей Филиппов, Георгий Вицин, Алексей Смирнов, Игорь Дмитриев, Лев Степанов, Гликерия Богданова-Чеснокова, Алексей Кожевников, Евгений Барков, Михаил Васильев, Николай Гаврилов...Описание: Скромный и робкий театральный гримёр по фамилии Зайчик неожиданно узнаёт, что ему осталось жить всего месяц. Он решает прожить последние дни с достоинством и пользой. Зайчик начинает делать то, на что не решался всю жизнь: ставить на место хамов, защищать людей от несправедливости и самоуправства, не задумываясь бросаться на помощь тому, кто в этом нуждается. Теперь он не боится, как раньше, остаться в одиночестве или оказаться в смешном положении. В конце концов выясняется, что смертельный диагноз, который он подслушал в поликлинике, относился совсем не к нему, а к обыкновенному зайчику (точнее, кролику). Но к тому времени Зайчик стал уже совершенно другим человеком — решительным, отважным и знающим себе цену.Релиз: Семпл: http://sendfile.su/1391202Тип релиза: DVB (Канал "Родное кино")
Контейнер: TSВидео: 720x576 (4:3) @ 786x576, 25.000 fps, AVC, ~2003 Kbps, 0.193 bits/pixel
Аудио: Русский, 48.0 KHz, MPEG-1 Audio layer 2, 2 ch, 192 Kbps

MediaInfo

GeneralID                                       : 1 (0x1)Complete name                            : Зайчик 1964 Родное кино.tsFormat                                   : MPEG-TSFile size                                : 1.33 GiBDuration                                 : 1 h 22 minOverall bit rate mode                    : VariableOverall bit rate                         : 2 311 kb/sVideoID                                       : 215 (0xD7)Menu ID                                  : 1 (0x1)Format                                   : AVCFormat/Info                              : Advanced Video CodecFormat profile                           : High@L3Format settings                          : CABAC / 4 Ref FramesFormat settings, CABAC                   : YesFormat settings, RefFrames               : 4 framesFormat settings, GOP                     : M=4, N=28Codec ID                                 : 27Duration                                 : 1 h 22 minBit rate                                 : 2 003 kb/sWidth                                    : 720 pixelsHeight                                   : 576 pixelsDisplay aspect ratio                     : 4:3Frame rate                               : 25.000 FPSStandard                                 : ComponentColor space                              : YUVChroma subsampling                       : 4:2:0Bit depth                                : 8 bitsScan type                                : InterlacedScan type, store method                  : Separated fieldsScan order                               : Top Field FirstBits/(Pixel*Frame)                       : 0.193Stream size                              : 1.15 GiB (87%)Color range                              : LimitedColor primaries                          : BT.601 PALTransfer characteristics                 : BT.470 System B, BT.470 System GMatrix coefficients                      : BT.470 System B, BT.470 System GAudioID                                       : 315 (0x13B)Menu ID                                  : 1 (0x1)Format                                   : MPEG AudioFormat version                           : Version 1Format profile                           : Layer 2Codec ID                                 : 3Duration                                 : 1 h 22 minBit rate mode                            : ConstantBit rate                                 : 192 kb/sChannel(s)                               : 2 channelsSampling rate                            : 48.0 kHzCompression mode                         : LossyDelay relative to video                  : -40 msStream size                              : 113 MiB (8%)Language                                 : Russian

Скриншоты

Для скачки контента: [Установить программу-клиент] и кликнуть по - Скачать

[asmlocator.ru].t493508.torrent 
Торрент: Зарегистрирован [ 2018-01-13 15:20 ] · E0356A74599D29CA463A8E5FF82D4C4DAB4798EA

Скачать .torrent

Скачать

14 KB

Статус: проверено
Скачан: 0 раз
Размер: 1,33 GB
terms.php
[Профиль] [ЛС]
Показать сообщения:    
Ответить на тему

Текущее время: 24-Янв 07:36

Часовой пояс: UTC ± 0



Вы не можете начинать темы
Вы не можете отвечать на сообщения
Вы не можете редактировать свои сообщения
Вы не можете удалять свои сообщения
Вы не можете голосовать в опросах
Вы не можете прикреплять файлы к сообщениям
Вы можете скачивать файлы