(Synthpop, Electronic, Pop) [CD] Pet Shop Boys - Yes - Further Listening 2008-2010 - 2017, FLAC (tracks+.cue), lossless

Ответить на тему
Статистика раздачи
Размер:  1,27 GB   |    Зарегистрирован:  11 дней   |    Скачан:  0 раз

Полного источника не было: Никогда

 
   
 
 
Автор Сообщение

star21 ®

Пол: Не указан

Стаж: 2 года 2 месяца

Сообщений: 354172

Создавать темы 13-Янв-2018 00:05

[Цитировать]

Pet Shop Boys / Yes - Further Listening 2008-2010 Жанр: Synthpop, Electronic, Pop
Носитель: CD (3xCD)
Страна-производитель диска (релиза): Europe
Год издания: 2017
Издатель (лейбл): Parlaphone
Номер по каталогу: 0190295852818
Страна исполнителя (группы): UKФормат CD, Album, Reissue, Remastered, 2 × CD, Compilation
Аудиокодек: FLAC (*.flac)
Тип рипа: tracks+.cue
Битрейт аудио: lossless
Продолжительность: 48:41 + 67:04 + 41:17
Источник (релизер): Собственная коллекция
Наличие сканов в содержимом раздачи: даТреклист:CD1
01. Love Etc (3:33)
02. All Over The World (3:51)
03. Beautiful People (3:42)
04. Did You See Me Coming? (3:41)
05. Vulnerable (4:47)
06. More Than A Dream (4:57)
07. Building A Wall (3:50)
08. King Of Rome (5:31)
09. Pandemonium (3:42)
10. The Way It Used To Be (4:44)
11. Legacy (6:23)Total length: 48:41CD2
01. Gin And Jag (4:30)
02. This Used To Be The Future (With Phil Oakey) (5:13)
03. We're All Criminals Now (3:55)
04. Gin And Jag (Frisky Mix) (7:12)
05. Beautiful People (Demo) (3:21)
06. My Girl (3:41)
07. The Loving Kind (Monitor Mix) (3:22)
08. Love Etc (PSB Mix) (6:17)
09. Did You See Me Coming? (PSB Possibly More Mix) (8:48)
10. The Former Enfant Terrible (PSB Bring It On Mix) (7:24)
11. Up And Down (3:45)
12. Brits Medley (9:35)**Total length: 67:04CD3
01. I Cried For Us (3:47)
02. It Doesn't Often Snow At Christmas (New Version) (3:50)
03. All Over The World (New Version) (3:48)
04. Viva La Vida/Domino Dancing (Christmas EP Mix) (5:32)
05. My Girl (Our House Mix) (5:48)
06. Leaving (Demo) (4:15)
07. Together (3:29)
08. Glad All Over (From Together CD Single) (3:25)
09. The Dumpling Song (Demo From My Dad's A Birdman) (1:48)*
10. Wings And Faith (Demo From My Dad's A Birdman) (2:09)*
11. Night Song (Fan Club Download 2010) (3:27)**Total length: 41:17

Лог создания рипа EAC - CD1

Exact Audio Copy V1.0 beta 6 from 9. April 2015EAC extraction logfile from 3. December 2017, 11:31Pet Shop Boys / YesUsed drive  : PIONEER DVD-RW  DVR-215   Adapter: 1  ID: 3Read mode               : SecureUtilize accurate stream : YesDefeat audio cache      : YesMake use of C2 pointers : NoRead offset correction                      : 48Overread into Lead-In and Lead-Out          : NoFill up missing offset samples with silence : YesDelete leading and trailing silent blocks   : NoNull samples used in CRC calculations       : YesUsed interface                              : Native Win32 interface for Win NT & 2000Gap handling                                : Appended to previous trackUsed output format              : User Defined EncoderSelected bitrate                : 1024 kBit/sQuality                         : HighAdd ID3 tag                     : NoCommand line compressor         : C:\Program Files (x86)\Exact Audio Copy\FLAC\FLAC.EXEAdditional command line options : -6 -V -T "COMMENT=Ripped by RRC" -T "ARTIST=%artist%" -T "TITLE=%title%" -T "ALBUM=%albumtitle%" -T "DATE=%year%" -T "TRACKNUMBER=%tracknr%" -T "GENRE=%genre%" -T "COMMENT=%comment%" -T "BAND=%albuminterpret%" -T "ALBUMARTIST=%albuminterpret%" -T "COMPOSER=%composer%" %haslyrics%--tag-from-file=LYRICS="%lyricsfile%"%haslyrics% -T "DISCNUMBER=%cdnumber%" -T "TOTALDISCS=%totalcds%" -T "TOTALTRACKS=%numtracks%" %hascover%--picture="%coverfile%"%hascover% %source% -o %dest%TOC of the extracted CD     Track |   Start  |  Length  | Start sector | End sector    ---------------------------------------------------------        1  |  0:00.00 |  3:32.61 |         0    |    15960        2  |  3:32.61 |  3:50.73 |     15961    |    33283        3  |  7:23.59 |  3:41.51 |     33284    |    49909        4  | 11:05.35 |  3:41.27 |     49910    |    66511        5  | 14:46.62 |  4:47.28 |     66512    |    88064        6  | 19:34.15 |  4:56.55 |     88065    |   110319        7  | 24:30.70 |  3:49.52 |    110320    |   127546        8  | 28:20.47 |  5:31.37 |    127547    |   152408        9  | 33:52.09 |  3:42.37 |    152409    |   169095       10  | 37:34.46 |  4:43.64 |    169096    |   190384       11  | 42:18.35 |  6:22.47 |    190385    |   219081Track  1     Filename G:\RRC's Rip\01-Love Etc..wav     Pre-gap length  0:00:02.00     Peak level 100.0 %     Extraction speed 3.7 X     Track quality 99.9 %     Test CRC 216EF7DA     Copy CRC 216EF7DA     Track not present in AccurateRip database     Copy OKTrack  2     Filename G:\RRC's Rip\02-All Over the World.wav     Peak level 99.9 %     Extraction speed 4.7 X     Track quality 100.0 %     Test CRC D5AC498E     Copy CRC D5AC498E     Track not present in AccurateRip database     Copy OKTrack  3     Filename G:\RRC's Rip\03-Beautiful People.wav     Peak level 100.0 %     Extraction speed 5.0 X     Track quality 100.0 %     Test CRC 97A231AD     Copy CRC 97A231AD     Track not present in AccurateRip database     Copy OKTrack  4     Filename G:\RRC's Rip\04-Did You See Me Coming.wav     Peak level 100.0 %     Extraction speed 5.3 X     Track quality 100.0 %     Test CRC D2CAD970     Copy CRC D2CAD970     Track not present in AccurateRip database     Copy OKTrack  5     Filename G:\RRC's Rip\05-Vulnerable.wav     Peak level 99.9 %     Extraction speed 5.8 X     Track quality 100.0 %     Test CRC 465526C6     Copy CRC 465526C6     Track not present in AccurateRip database     Copy OKTrack  6     Filename G:\RRC's Rip\06-More Than a Dream.wav     Peak level 100.0 %     Extraction speed 6.2 X     Track quality 100.0 %     Test CRC 713823BC     Copy CRC 713823BC     Track not present in AccurateRip database     Copy OKTrack  7     Filename G:\RRC's Rip\07-Building a Wall.wav     Peak level 100.0 %     Extraction speed 6.3 X     Track quality 100.0 %     Test CRC 87B21AB9     Copy CRC 87B21AB9     Track not present in AccurateRip database     Copy OKTrack  8     Filename G:\RRC's Rip\08-King of Rome.wav     Peak level 100.0 %     Extraction speed 7.0 X     Track quality 100.0 %     Test CRC 76FBE95D     Copy CRC 76FBE95D     Track not present in AccurateRip database     Copy OKTrack  9     Filename G:\RRC's Rip\09-Pandemonium.wav     Peak level 100.0 %     Extraction speed 6.8 X     Track quality 100.0 %     Test CRC B10F88BD     Copy CRC B10F88BD     Track not present in AccurateRip database     Copy OKTrack 10     Filename G:\RRC's Rip\10-The Way It Used to Be.wav     Peak level 99.9 %     Extraction speed 6.6 X     Track quality 99.9 %     Test CRC B4155B41     Copy CRC B4155B41     Track not present in AccurateRip database     Copy OKTrack 11     Filename G:\RRC's Rip\11-Legacy.wav     Pre-gap length  0:00:00.11     Peak level 100.0 %     Extraction speed 7.9 X     Track quality 100.0 %     Test CRC 2B51700B     Copy CRC 2B51700B     Track not present in AccurateRip database     Copy OKNone of the tracks are present in the AccurateRip databaseNo errors occurredEnd of status report---- CUETools DB Plugin V2.1.6[CTDB TOCID: DRmYZnol5_RqVIe.QaWub7zAuss-] foundSubmit result: DRmYZnol5_RqVIe.QaWub7zAuss- has been confirmedTrack | CTDB Status  1   | (59/59) Accurately ripped  2   | (59/59) Accurately ripped  3   | (59/59) Accurately ripped  4   | (59/59) Accurately ripped  5   | (59/59) Accurately ripped  6   | (59/59) Accurately ripped  7   | (59/59) Accurately ripped  8   | (59/59) Accurately ripped  9   | (59/59) Accurately ripped 10   | (59/59) Accurately ripped 11   | (59/59) Accurately ripped==== Log checksum FB8118F8E61E1E6E0ACC295C48AF25574F287F222144896DD293FEFF6075A028 ====

Содержание индексной карты (.CUE) - CD1

REM GENRE PopREM DATE 2017REM DISCID 8B0B690BREM COMMENT "ExactAudioCopy v1.0b6"PERFORMER "Pet Shop Boys"TITLE "Yes"FILE "01-Love Etc..wav" WAVE  TRACK 01 AUDIO    TITLE "Love Etc."    PERFORMER "Pet Shop Boys"    INDEX 01 00:00:00FILE "02-All Over the World.wav" WAVE  TRACK 02 AUDIO    TITLE "All Over the World"    PERFORMER "Pet Shop Boys"    INDEX 01 00:00:00FILE "03-Beautiful People.wav" WAVE  TRACK 03 AUDIO    TITLE "Beautiful People"    PERFORMER "Pet Shop Boys"    INDEX 01 00:00:00FILE "04-Did You See Me Coming.wav" WAVE  TRACK 04 AUDIO    TITLE "Did You See Me Coming?"    PERFORMER "Pet Shop Boys"    INDEX 01 00:00:00FILE "05-Vulnerable.wav" WAVE  TRACK 05 AUDIO    TITLE "Vulnerable"    PERFORMER "Pet Shop Boys"    INDEX 01 00:00:00FILE "06-More Than a Dream.wav" WAVE  TRACK 06 AUDIO    TITLE "More Than a Dream"    PERFORMER "Pet Shop Boys"    INDEX 01 00:00:00FILE "07-Building a Wall.wav" WAVE  TRACK 07 AUDIO    TITLE "Building a Wall"    PERFORMER "Pet Shop Boys"    INDEX 01 00:00:00FILE "08-King of Rome.wav" WAVE  TRACK 08 AUDIO    TITLE "King of Rome"    PERFORMER "Pet Shop Boys"    INDEX 01 00:00:00FILE "09-Pandemonium.wav" WAVE  TRACK 09 AUDIO    TITLE "Pandemonium"    PERFORMER "Pet Shop Boys"    INDEX 01 00:00:00FILE "10-The Way It Used to Be.wav" WAVE  TRACK 10 AUDIO    TITLE "The Way It Used to Be"    PERFORMER "Pet Shop Boys"    INDEX 01 00:00:00  TRACK 11 AUDIO    TITLE "Legacy"    PERFORMER "Pet Shop Boys"    INDEX 00 04:43:53FILE "11-Legacy.wav" WAVE    INDEX 01 00:00:00

Лог создания рипа EAC - CD2

Exact Audio Copy V1.0 beta 6 from 9. April 2015EAC extraction logfile from 3. December 2017, 1:46Pet Shop Boys / Yes - Further Listening 2008–2010 Vol. 1Used drive  : PIONEER DVD-RW  DVR-215   Adapter: 1  ID: 3Read mode               : SecureUtilize accurate stream : YesDefeat audio cache      : YesMake use of C2 pointers : NoRead offset correction                      : 48Overread into Lead-In and Lead-Out          : NoFill up missing offset samples with silence : YesDelete leading and trailing silent blocks   : NoNull samples used in CRC calculations       : YesUsed interface                              : Native Win32 interface for Win NT & 2000Gap handling                                : Appended to previous trackUsed output format              : User Defined EncoderSelected bitrate                : 1024 kBit/sQuality                         : HighAdd ID3 tag                     : NoCommand line compressor         : C:\Program Files (x86)\Exact Audio Copy\FLAC\FLAC.EXEAdditional command line options : -6 -V -T "COMMENT=Ripped by RRC" -T "ARTIST=%artist%" -T "TITLE=%title%" -T "ALBUM=%albumtitle%" -T "DATE=%year%" -T "TRACKNUMBER=%tracknr%" -T "GENRE=%genre%" -T "COMMENT=%comment%" -T "BAND=%albuminterpret%" -T "ALBUMARTIST=%albuminterpret%" -T "COMPOSER=%composer%" %haslyrics%--tag-from-file=LYRICS="%lyricsfile%"%haslyrics% -T "DISCNUMBER=%cdnumber%" -T "TOTALDISCS=%totalcds%" -T "TOTALTRACKS=%numtracks%" %hascover%--picture="%coverfile%"%hascover% %source% -o %dest%TOC of the extracted CD     Track |   Start  |  Length  | Start sector | End sector    ---------------------------------------------------------        1  |  0:00.00 |  4:29.40 |         0    |    20214        2  |  4:29.40 |  5:12.50 |     20215    |    43664        3  |  9:42.15 |  3:55.15 |     43665    |    61304        4  | 13:37.30 |  7:12.31 |     61305    |    93735        5  | 20:49.61 |  3:21.14 |     93736    |   108824        6  | 24:11.00 |  3:41.16 |    108825    |   125415        7  | 27:52.16 |  3:22.29 |    125416    |   140594        8  | 31:14.45 |  6:17.24 |    140595    |   168893        9  | 37:31.69 |  8:48.24 |    168894    |   208517       10  | 46:20.18 |  7:23.74 |    208518    |   241816       11  | 53:44.17 |  3:44.50 |    241817    |   258666       12  | 57:28.67 |  9:35.05 |    258667    |   301796Track  1     Filename G:\RRC's Rip\01-Gin And Jag.wav     Pre-gap length  0:00:02.00     Peak level 99.7 %     Extraction speed 4.4 X     Track quality 100.0 %     Test CRC F7949645     Copy CRC F7949645     Track not present in AccurateRip database     Copy OKTrack  2     Filename G:\RRC's Rip\02-This Used To Be The Future.wav     Peak level 99.7 %     Extraction speed 5.0 X     Track quality 100.0 %     Test CRC 99F381B1     Copy CRC 99F381B1     Track not present in AccurateRip database     Copy OKTrack  3     Filename G:\RRC's Rip\03-We're All Criminals Now.wav     Peak level 99.9 %     Extraction speed 5.2 X     Track quality 100.0 %     Test CRC 17F9CB40     Copy CRC 17F9CB40     Track not present in AccurateRip database     Copy OKTrack  4     Filename G:\RRC's Rip\04-Gin And Jag (Frisky Mix).wav     Peak level 99.9 %     Extraction speed 6.0 X     Track quality 100.0 %     Test CRC 04BE1793     Copy CRC 04BE1793     Track not present in AccurateRip database     Copy OKTrack  5     Filename G:\RRC's Rip\05-Beautiful People (Demo).wav     Peak level 99.9 %     Extraction speed 5.2 X     Track quality 99.9 %     Test CRC 3FB2B060     Copy CRC 3FB2B060     Track not present in AccurateRip database     Copy OKTrack  6     Filename G:\RRC's Rip\06-My Girl.wav     Peak level 99.9 %     Extraction speed 6.2 X     Track quality 100.0 %     Test CRC 4B7A1795     Copy CRC 4B7A1795     Track not present in AccurateRip database     Copy OKTrack  7     Filename G:\RRC's Rip\07-The Loving Kind (Monitor Mix).wav     Peak level 100.0 %     Extraction speed 6.4 X     Track quality 100.0 %     Test CRC CDB30EB9     Copy CRC CDB30EB9     Track not present in AccurateRip database     Copy OKTrack  8     Filename G:\RRC's Rip\08-Love Etc (PSB Mix).wav     Peak level 99.9 %     Extraction speed 7.2 X     Track quality 100.0 %     Test CRC 3BBBAAEA     Copy CRC 3BBBAAEA     Track not present in AccurateRip database     Copy OKTrack  9     Filename G:\RRC's Rip\09-Did You See Me Coming (PSB Possibly More Mix).wav     Peak level 100.0 %     Extraction speed 7.9 X     Track quality 100.0 %     Test CRC 513E2690     Copy CRC 513E2690     Track not present in AccurateRip database     Copy OKTrack 10     Filename G:\RRC's Rip\10-The Former Enfant Terrible (PSB Bring It On Mix).wav     Peak level 100.0 %     Extraction speed 8.3 X     Track quality 100.0 %     Test CRC 3015DA33     Copy CRC 3015DA33     Track not present in AccurateRip database     Copy OKTrack 11     Filename G:\RRC's Rip\11-Up And Down.wav     Peak level 99.9 %     Extraction speed 7.9 X     Track quality 100.0 %     Test CRC B7408EFD     Copy CRC B7408EFD     Track not present in AccurateRip database     Copy OKTrack 12     Filename G:\RRC's Rip\12-Brits Medley.wav     Peak level 99.9 %     Extraction speed 9.1 X     Track quality 100.0 %     Test CRC C4AC009F     Copy CRC C4AC009F     Track not present in AccurateRip database     Copy OKNone of the tracks are present in the AccurateRip databaseNo errors occurredEnd of status report---- CUETools DB Plugin V2.1.6[CTDB TOCID: UiGDz.j0_5ONRDPuUS3AtANw2T8-] foundSubmit result: UiGDz.j0_5ONRDPuUS3AtANw2T8- has been confirmedTrack | CTDB Status  1   | (60/61) Accurately ripped  2   | (59/61) Accurately ripped  3   | (59/61) Accurately ripped  4   | (60/61) Accurately ripped  5   | (60/61) Accurately ripped  6   | (60/61) Accurately ripped  7   | (60/61) Accurately ripped  8   | (60/61) Accurately ripped  9   | (60/61) Accurately ripped 10   | (60/61) Accurately ripped 11   | (60/61) Accurately ripped 12   | (59/61) Accurately ripped==== Log checksum 8375F19A035163B97FB6E16F23AB449172E8384D0DED8A2EB11E2A42A062675E ====

Содержание индексной карты (.CUE) - CD2

REM GENRE PopREM DATE 2017REM DISCID A50FB70CREM COMMENT "ExactAudioCopy v1.0b6"PERFORMER "Pet Shop Boys"TITLE "Yes - Further Listening 2008–2010 Vol. 1"FILE "01-Gin And Jag.wav" WAVE  TRACK 01 AUDIO    TITLE "Gin And Jag"    PERFORMER "Pet Shop Boys"    INDEX 01 00:00:00FILE "02-This Used To Be The Future.wav" WAVE  TRACK 02 AUDIO    TITLE "This Used To Be The Future"    PERFORMER "Pet Shop Boys featuring Phil Oakey"    INDEX 01 00:00:00FILE "03-We're All Criminals Now.wav" WAVE  TRACK 03 AUDIO    TITLE "We're All Criminals Now"    PERFORMER "Pet Shop Boys"    INDEX 01 00:00:00FILE "04-Gin And Jag (Frisky Mix).wav" WAVE  TRACK 04 AUDIO    TITLE "Gin And Jag (Frisky Mix)"    PERFORMER "Pet Shop Boys"    INDEX 01 00:00:00FILE "05-Beautiful People (Demo).wav" WAVE  TRACK 05 AUDIO    TITLE "Beautiful People (Demo)"    PERFORMER "Pet Shop Boys"    INDEX 01 00:00:00FILE "06-My Girl.wav" WAVE  TRACK 06 AUDIO    TITLE "My Girl"    PERFORMER "Pet Shop Boys"    INDEX 01 00:00:00FILE "07-The Loving Kind (Monitor Mix).wav" WAVE  TRACK 07 AUDIO    TITLE "The Loving Kind (Monitor Mix)"    PERFORMER "Pet Shop Boys"    INDEX 01 00:00:00FILE "08-Love Etc (PSB Mix).wav" WAVE  TRACK 08 AUDIO    TITLE "Love Etc (PSB Mix)"    PERFORMER "Pet Shop Boys"    INDEX 01 00:00:00FILE "09-Did You See Me Coming (PSB Possibly More Mix).wav" WAVE  TRACK 09 AUDIO    TITLE "Did You See Me Coming? (PSB Possibly More Mix)"    PERFORMER "Pet Shop Boys"    INDEX 01 00:00:00FILE "10-The Former Enfant Terrible (PSB Bring It On Mix).wav" WAVE  TRACK 10 AUDIO    TITLE "The Former Enfant Terrible (PSB Bring It On Mix)"    PERFORMER "Pet Shop Boys"    INDEX 01 00:00:00FILE "11-Up And Down.wav" WAVE  TRACK 11 AUDIO    TITLE "Up And Down"    PERFORMER "Pet Shop Boys"    INDEX 01 00:00:00FILE "12-Brits Medley.wav" WAVE  TRACK 12 AUDIO    TITLE "Brits Medley"    PERFORMER "Pet Shop Boys"    INDEX 01 00:00:00

Лог создания рипа EAC - CD3

Exact Audio Copy V1.0 beta 6 from 9. April 2015EAC extraction logfile from 3. December 2017, 2:04Pet Shop Boys / Yes - Further Listening 2008–2010 Vol.2Used drive  : PIONEER DVD-RW  DVR-215   Adapter: 1  ID: 3Read mode               : SecureUtilize accurate stream : YesDefeat audio cache      : YesMake use of C2 pointers : NoRead offset correction                      : 48Overread into Lead-In and Lead-Out          : NoFill up missing offset samples with silence : YesDelete leading and trailing silent blocks   : NoNull samples used in CRC calculations       : YesUsed interface                              : Native Win32 interface for Win NT & 2000Gap handling                                : Appended to previous trackUsed output format              : User Defined EncoderSelected bitrate                : 1024 kBit/sQuality                         : HighAdd ID3 tag                     : NoCommand line compressor         : C:\Program Files (x86)\Exact Audio Copy\FLAC\FLAC.EXEAdditional command line options : -6 -V -T "COMMENT=Ripped by RRC" -T "ARTIST=%artist%" -T "TITLE=%title%" -T "ALBUM=%albumtitle%" -T "DATE=%year%" -T "TRACKNUMBER=%tracknr%" -T "GENRE=%genre%" -T "COMMENT=%comment%" -T "BAND=%albuminterpret%" -T "ALBUMARTIST=%albuminterpret%" -T "COMPOSER=%composer%" %haslyrics%--tag-from-file=LYRICS="%lyricsfile%"%haslyrics% -T "DISCNUMBER=%cdnumber%" -T "TOTALDISCS=%totalcds%" -T "TOTALTRACKS=%numtracks%" %hascover%--picture="%coverfile%"%hascover% %source% -o %dest%TOC of the extracted CD     Track |   Start  |  Length  | Start sector | End sector    ---------------------------------------------------------        1  |  0:00.00 |  3:47.35 |         0    |    17059        2  |  3:47.35 |  3:49.43 |     17060    |    34277        3  |  7:37.03 |  3:47.61 |     34278    |    51363        4  | 11:24.64 |  5:32.01 |     51364    |    76264        5  | 16:56.65 |  5:48.10 |     76265    |   102374        6  | 22:45.00 |  4:14.70 |    102375    |   121494        7  | 26:59.70 |  3:28.70 |    121495    |   137164        8  | 30:28.65 |  3:25.03 |    137165    |   152542        9  | 33:53.68 |  1:47.39 |    152543    |   160606       10  | 35:41.32 |  2:08.60 |    160607    |   170266       11  | 37:50.17 |  3:27.06 |    170267    |   185797Track  1     Filename G:\RRC's Rip\01-I Cried For Us.wav     Pre-gap length  0:00:02.00     Peak level 98.8 %     Extraction speed 4.3 X     Track quality 100.0 %     Test CRC C5D072A0     Copy CRC C5D072A0     Track not present in AccurateRip database     Copy OKTrack  2     Filename G:\RRC's Rip\02-It Doesn't Often Snow At Christmas (New Version).wav     Peak level 99.8 %     Extraction speed 4.8 X     Track quality 100.0 %     Test CRC 3F724FF5     Copy CRC 3F724FF5     Track not present in AccurateRip database     Copy OKTrack  3     Filename G:\RRC's Rip\03-All Over The World (New Version).wav     Peak level 99.8 %     Extraction speed 5.1 X     Track quality 100.0 %     Test CRC E5FB8BD3     Copy CRC E5FB8BD3     Track not present in AccurateRip database     Copy OKTrack  4     Filename G:\RRC's Rip\04-Viva La Vida , Domino Dancing (Christmas EP Mix).wav     Peak level 99.9 %     Extraction speed 5.3 X     Track quality 99.9 %     Test CRC 170F4E8A     Copy CRC 170F4E8A     Track not present in AccurateRip database     Copy OKTrack  5     Filename G:\RRC's Rip\05-My Girl (Our House Mix).wav     Peak level 99.9 %     Extraction speed 6.3 X     Track quality 100.0 %     Test CRC 2648D832     Copy CRC 2648D832     Track not present in AccurateRip database     Copy OKTrack  6     Filename G:\RRC's Rip\06-Leaving (Demo).wav     Peak level 89.0 %     Extraction speed 5.8 X     Track quality 99.9 %     Test CRC D29534EA     Copy CRC D29534EA     Track not present in AccurateRip database     Copy OKTrack  7     Filename G:\RRC's Rip\07-Together.wav     Peak level 100.0 %     Extraction speed 6.6 X     Track quality 100.0 %     Test CRC A42E945D     Copy CRC A42E945D     Track not present in AccurateRip database     Copy OKTrack  8     Filename G:\RRC's Rip\08-Glad All Over (From 'Together' CD Single).wav     Peak level 99.9 %     Extraction speed 6.8 X     Track quality 100.0 %     Test CRC AC4F92F7     Copy CRC AC4F92F7     Track not present in AccurateRip database     Copy OKTrack  9     Filename G:\RRC's Rip\09-The Dumpling Song (Demo From My Dad's A Birdman).wav     Peak level 100.0 %     Extraction speed 4.9 X     Track quality 99.9 %     Test CRC 3801292B     Copy CRC 3801292B     Track not present in AccurateRip database     Copy OKTrack 10     Filename G:\RRC's Rip\10-Wings And Faith (Demo From My Dad's A Birdman).wav     Peak level 99.9 %     Extraction speed 5.3 X     Track quality 99.9 %     Test CRC D5DD1A4B     Copy CRC D5DD1A4B     Track not present in AccurateRip database     Copy OKTrack 11     Filename G:\RRC's Rip\11-Night Song (Fan Club Download 2010).wav     Peak level 99.9 %     Extraction speed 7.2 X     Track quality 100.0 %     Test CRC 3C5C1F54     Copy CRC 3C5C1F54     Track not present in AccurateRip database     Copy OKNone of the tracks are present in the AccurateRip databaseNo errors occurredEnd of status report---- CUETools DB Plugin V2.1.6[CTDB TOCID: 8Z2dc_u7FJdNzNyDs_xJhncdmMM-] foundSubmit result: 8Z2dc_u7FJdNzNyDs_xJhncdmMM- has been confirmedTrack | CTDB Status  1   | (60/61) Accurately ripped  2   | (60/61) Accurately ripped  3   | (60/61) Accurately ripped  4   | (60/61) Accurately ripped  5   | (60/61) Accurately ripped  6   | (60/61) Accurately ripped  7   | (60/61) Accurately ripped  8   | (60/61) Accurately ripped  9   | (60/61) Accurately ripped 10   | (60/61) Accurately ripped 11   | (60/61) Accurately ripped==== Log checksum 10790A5D1C85018E72638C5CA163F576AC2B3ABD9EA05A00B6356EFA4590763B ====

Содержание индексной карты (.CUE) - CD3

REM GENRE PopREM DATE 2017REM DISCID 8709AD0BREM COMMENT "ExactAudioCopy v1.0b6"PERFORMER "Pet Shop Boys"TITLE "Yes - Further Listening 2008–2010 Vol.2"FILE "01-I Cried For Us.wav" WAVE  TRACK 01 AUDIO    TITLE "I Cried For Us"    PERFORMER "Pet Shop Boys"    INDEX 01 00:00:00FILE "02-It Doesn't Often Snow At Christmas (New Version).wav" WAVE  TRACK 02 AUDIO    TITLE "It Doesn't Often Snow At Christmas (New Version)"    PERFORMER "Pet Shop Boys"    INDEX 01 00:00:00FILE "03-All Over The World (New Version).wav" WAVE  TRACK 03 AUDIO    TITLE "All Over The World (New Version)"    PERFORMER "Pet Shop Boys"    INDEX 01 00:00:00FILE "04-Viva La Vida , Domino Dancing (Christmas EP Mix).wav" WAVE  TRACK 04 AUDIO    TITLE "Viva La Vida / Domino Dancing (Christmas EP Mix)"    PERFORMER "Pet Shop Boys"    INDEX 01 00:00:00FILE "05-My Girl (Our House Mix).wav" WAVE  TRACK 05 AUDIO    TITLE "My Girl (Our House Mix)"    PERFORMER "Pet Shop Boys"    INDEX 01 00:00:00FILE "06-Leaving (Demo).wav" WAVE  TRACK 06 AUDIO    TITLE "Leaving (Demo)"    PERFORMER "Pet Shop Boys"    INDEX 01 00:00:00FILE "07-Together.wav" WAVE  TRACK 07 AUDIO    TITLE "Together"    PERFORMER "Pet Shop Boys"    INDEX 01 00:00:00FILE "08-Glad All Over (From 'Together' CD Single).wav" WAVE  TRACK 08 AUDIO    TITLE "Glad All Over (From 'Together' CD Single)"    PERFORMER "Pet Shop Boys"    INDEX 01 00:00:00FILE "09-The Dumpling Song (Demo From My Dad's A Birdman).wav" WAVE  TRACK 09 AUDIO    TITLE "The Dumpling Song (Demo From My Dad's A Birdman)"    PERFORMER "Pet Shop Boys"    INDEX 01 00:00:00FILE "10-Wings And Faith (Demo From My Dad's A Birdman).wav" WAVE  TRACK 10 AUDIO    TITLE "Wings And Faith (Demo From My Dad's A Birdman)"    PERFORMER "Pet Shop Boys"    INDEX 01 00:00:00FILE "11-Night Song (Fan Club Download 2010).wav" WAVE  TRACK 11 AUDIO    TITLE "Night Song (Fan Club Download 2010)"    PERFORMER "Pet Shop Boys"    INDEX 01 00:00:00

Для скачки контента: [Установить программу-клиент] и кликнуть по - Скачать

[asmlocator.ru].t493358.torrent 
Торрент: Зарегистрирован [ 2018-01-13 00:05 ] · F7AF9F0D147FD061557741108F475C46ABB268C2

Скачать .torrent

Скачать

22 KB

Статус: проверено
Скачан: 0 раз
Размер: 1,27 GB
terms.php
[Профиль] [ЛС]
Показать сообщения:    
Ответить на тему

Текущее время: 24-Янв 07:28

Часовой пояс: UTC ± 0



Вы не можете начинать темы
Вы не можете отвечать на сообщения
Вы не можете редактировать свои сообщения
Вы не можете удалять свои сообщения
Вы не можете голосовать в опросах
Вы не можете прикреплять файлы к сообщениям
Вы можете скачивать файлы