Елена Войнаровская — Концерт в клубе Volta, Москва, 1 октября 2016 г. [2017, CardioWave, DVD9]

Ответить на тему
Статистика раздачи
Размер:  7,38 GB   |    Зарегистрирован:  3 месяца 12 дней   |    Скачан:  0 раз

Полного источника не было: 15 дней

 
   
 
 
Автор Сообщение

star21 ®

Пол: Не указан

Стаж: 2 года 5 месяцев

Сообщений: 519518

Создавать темы 13-Янв-2018 00:05

[Цитировать]

Елена Войнаровская — Концерт в клубе Volta, Москва, 1 октября 2016 г. Страна: Украина
Жанр: CardioWave
Продолжительность: 2:05:45
Год выпуска: 2017
Лейбл: CardioWaveОписание:
Елена Войнаровская со своим ансамблем (состоящим, в общем-то, из тех же «флёровцев») представила в клубе VOLTA сольный альбом «Присутствие». В программе концерта — они, и, конечно же, любимые «флёровские» вещи — своеобразный «the best» из написанного за 16 лет.Треклист:
01. Отречение 05:09
02. Разбег 05:02
03. Это будет моим ответом 04:06
04. После кораблекрушения 05:36
05. Присутствие 04:25
06. Банка с краской 04:57
07. Огнекрылый дракон 03:47
08. Карфаген 05:34
09. Эдельвейсы 04:58
10. Кофейные зёрнышки 04:51
11. Налегке 05:12
12. Кардиограмма 05:51
13. Стриптиз 07:46
14. Мои новые чёрные крылья 03:38
15. Автопортрет 06:03
16. Тысячи вольт 06:27
17. То, что делает нас людьми 05:13
18. Расскажи мне о своей катастрофе 06:07
19. Тридцать семь 05:17
20. Колыбельная для солнца 04:57
21. Непобедимая армия 05:37
22. Мы никогда не умрём 04:22
23. Русская рулетка 05:57
24. На обратной стороне Луны 04:53Доп. информация: Уважаемые модераторы, если будут замечания к раздаче, посоветуйте, пожалуйста, как исправлять.Источник: «родной» диск DVD-DL. Обложки в чистом виде нет, есть фотографии обложек и диска — есть ли смысл их выкладывать отдельной папкой Covers? (сканера всё равно нет, так что других файлов обложки у меня не будет)Разбивка на главы по трекам: есть
Качество : DVD9
Формат: DVD video
Видео кодек: MPEG2
Аудио кодек: AC3
Видео: MPEG2 Video 720x576 (16:9) 25fps 7758kbps [V: mpeg2 main, yuv420p, 720x576, 7758 kb/s]
Аудио: Dolby AC3 48000Hz stereo 192kbps [A: ac3, 48000 Hz, stereo, 192 kb/s]

DVDinfo

GeneralFormat                         : MPEG-PSFile size                      : 297 MiBDuration                       : 5mn 8sOverall bit rate               : 8 063 KbpsVideoID                             : 224 (0xE0)Format                         : MPEG VideoFormat version                 : Version 2Format profile                 : Main@MainFormat settings, BVOP          : YesFormat settings, Matrix        : DefaultFormat settings, GOP           : M=3, N=12Format settings, picture struc : FrameDuration                       : 3msBit rate                       : 7 758 KbpsWidth                          : 720 pixelsHeight                         : 576 pixelsDisplay aspect ratio           : 16:9Frame rate                     : 25.000 fpsStandard                       : PALColor space                    : YUVChroma subsampling             : 4:2:0Bit depth                      : 8 bitsScan type                      : InterlacedScan order                     : Bottom Field FirstCompression mode               : LossyBits/(Pixel*Frame)             : 0.748Time code of first frame       : 00:00:00:00Time code source               : Group of pictures headerGOP, Open/Closed               : ClosedStream size                    : 2.82 KiB (0%)AudioID                             : 189 (0xBD)-128 (0x80)Format                         : AC-3Format/Info                    : Audio Coding 3Mode extension                 : CM (complete main)Format settings, Endianness    : BigMuxing mode                    : DVD-VideoDuration                       : 5mn 8sBit rate mode                  : ConstantBit rate                       : 192 KbpsChannel(s)                     : 2 channelsChannel positions              : Front: L RSampling rate                  : 48.0 KHzCompression mode               : LossyStream size                    : 7.07 MiB (2%)Menu

Скриншоты меню





Скриншоты



Состав ансамбля:

Елена Войнаровская — вокал, гитара, фортепиано, слова и музыка;
Екатерина Котельникова — синтезаторы, бэк-вокал, аранжировки;
Екатерина Боровцова — виолончель, бэк-вокал;
Алла Лужецкая — флейта;
Олег Митрофанов — бас-гитара;
Алексей Ткачевский — ударные.

Участники выпуска DVD:

Сергей Капитанюк — съёмка и монтаж;
Аркадий Голубков — концертный звук;
Алексей Нагорных — сведение и мастеринг
при общем участии Дмитрия Векова.Фото — Ольга Косина, Ольга Руденко;
дизайн — Анна Марьина.

Для скачки контента: [Установить программу-клиент] и кликнуть по - Скачать

[asmlocator.ru].t493353.torrent 
Торрент: Зарегистрирован [ 2018-01-13 00:05 ] · F528E0EEC2C11EE4F8F8F39C07F4BCF754829D7D

Скачать .torrent

Скачать

50 KB

Статус: проверено
Скачан: 0 раз
Размер: 7,38 GB
terms.php
[Профиль] [ЛС]
Показать сообщения:    
Ответить на тему

Текущее время: 25-Апр 00:55

Часовой пояс: UTC ± 0



Вы не можете начинать темы
Вы не можете отвечать на сообщения
Вы не можете редактировать свои сообщения
Вы не можете удалять свои сообщения
Вы не можете голосовать в опросах
Вы не можете прикреплять файлы к сообщениям
Вы можете скачивать файлы