[TR24][OF] Kayak - Seventeen - 2018 (Rock, Progressive Rock)

Ответить на тему
Статистика раздачи
Размер:  727 MB   |    Зарегистрирован:  11 дней   |    Скачан:  0 раз

Полного источника не было: Никогда

 
   
 
 
Автор Сообщение

star21 ®

Пол: Не указан

Стаж: 2 года 2 месяца

Сообщений: 354172

Создавать темы 13-Янв-2018 00:05

[Цитировать]

Kayak / Seventeen Формат записи/Источник записи: [TR24][OF]
Наличие водяных знаков: Нет
Год издания/переиздания диска: 2018
Жанр: Rock, Progressive Rock
Издатель (лейбл): InsideOutMusic
Продолжительность: 01:00:04
Наличие сканов в содержимом раздачи: Front
Источник (релизер): 7digitalКонтейнер: FLAC (*.flac)
Тип рипа: tracksРазрядность: 24/48
Формат: PCM
Количество каналов: 2.0Треклист:
01. Somebody
02. La Peregrina
03. Falling
04. Feathers and Tar
05. Walk Through Fire
06. Ripples on the Water
07. All That I Want
08. X Marks the Spot
09. God on Our Side
10. Love, Sail Away
11. Cracks
12. To an End

Лог проверки качества

foobar2000 1.1.10 / Dynamic Range Meter 1.1.1log date: 2018-01-13 00:28:29--------------------------------------------------------------------------------Analyzed: Kayak / Seventeen--------------------------------------------------------------------------------DR         Peak         RMS     Duration Track--------------------------------------------------------------------------------DR8       -1.10 dB   -10.30 dB      3:04 ?-SomebodyDR8       -1.10 dB   -10.97 dB     11:42 ?-La PeregrinaDR8       -1.10 dB   -11.07 dB      3:09 ?-FallingDR8       -1.10 dB   -10.29 dB      3:14 ?-Feathers and TarDR7       -1.10 dB   -10.14 dB     10:24 ?-Walk Through FireDR9       -1.10 dB   -15.76 dB      3:40 ?-Ripples on the WaterDR7       -1.10 dB    -9.24 dB      3:48 ?-All That I WantDR12      -1.72 dB   -16.10 dB      1:58 ?-X Marks the SpotDR8       -1.10 dB   -10.07 dB      3:31 ?-God on Our SideDR7       -1.10 dB   -10.22 dB      3:13 ?-Love, Sail AwayDR7       -1.10 dB   -10.32 dB      8:50 ?-CracksDR10      -3.01 dB   -17.08 dB      3:31 ?-To an End--------------------------------------------------------------------------------Number of tracks:  12Official DR value: DR8Samplerate:        48000 HzChannels:          2Bits per sample:   24Bitrate:           1353 kbpsCodec:             FLAC================================================================================

Состав

Bart Schwertmann - Vocals
Marcel Singor - Guitars
Kristoffer Gildenlow - Bass
Ton Scherpenzeel - Keyboards
Collin Leijenaar - DrumsWith:
Andy Latimer (Camel) - Guitars

Об исполнителе (группе)

With their instrumental prowess and keyboardist Ton Scherpenzeel's facility at writing lyrics in English, you might be forgiven for mistaking Kayak for a bunch of clever proggers from London. But this Dutch band began in 1968 in the city of Hilversum, where Scherpenzeel and drummer Pim Koopman attended a music conservatory. After the addition of guitarist Johan Slager, bassist Cees van Leeuwen, and vocalist Max Werner, the group solidified by 1972 and commenced recording. Stylistically they featured the instrumentation and chops of progressive acts like Yes and Genesis, but the pop song structures of Supertramp and the Alan Parsons Project; as time passed they increasingly favored the pop side of the equation. Royal Bed Bouncer, the most even balance between these two styles, was to be a commercial and artistic high point for the band. They continued to meet with minor success throughout the '70s on a variety of record labels, and in 1974 toured in support of Queen -- a move that influenced the flavor of their later work.Like most progressive bands, Kayak never had a terribly stable lineup; at one point they went through three bassists in as many years. With Scherpenzeel as the sole constant, Kayak's first lineup also proved to be their finest; but Koopman's asthma forced him to retire in 1976, and Werner was so tortured by stage fright and unfounded doubts over his singing ability that he demanded the vacated drum chair for himself, leaving the vocal duties to new member Edward Reekers. Scherpenzeel's central role in the band eventually wore on the others, and Kayak fell apart in 1980. Scherpenzeel continued on to work with the English band Camel and then compose primarily for the theater. Koopman and Reekers worked in music production and performance; Werner left the stage to become a postal worker; and van Leeuwen became -- of all things -- a prominent lawyer. The band reunited in 1997 for a Dutch TV special, though no new recordings have yet emerged.
https://www.kayakonline.info/
http://www.progarchives.com/album.asp?id=56116
https://en.wikipedia.org/wiki/Kayak_(band)

Для скачки контента: [Установить программу-клиент] и кликнуть по - Скачать

[asmlocator.ru].t493352.torrent 
Торрент: Зарегистрирован [ 2018-01-13 00:05 ] · 55CA5036345742E81BC399B23A5DC48DFF29B53E

Скачать .torrent

Скачать

15 KB

Статус: проверено
Скачан: 0 раз
Размер: 727 MB
terms.php
[Профиль] [ЛС]
Показать сообщения:    
Ответить на тему

Текущее время: 24-Янв 07:32

Часовой пояс: UTC ± 0



Вы не можете начинать темы
Вы не можете отвечать на сообщения
Вы не можете редактировать свои сообщения
Вы не можете удалять свои сообщения
Вы не можете голосовать в опросах
Вы не можете прикреплять файлы к сообщениям
Вы можете скачивать файлы