Рапсодия иного мира, что началась с марша смерти / Death March kara Hajimaru Isekai Kyousoukyoku (Онума Син) [TV] [01 из 12] [Без хардсаба] [JAP+SUB] [2018, Приключения, фэнтези, WEBRip] [1080p]

Ответить на тему
Статистика раздачи
Размер:  915 MB   |    Зарегистрирован:  6 месяцев 6 дней   |    Скачан:  0 раз

Полного источника не было: Никогда

 
   
 
 
Автор Сообщение

star21 ®

Пол: Женский

Стаж: 2 года 8 месяцев

Сообщений: 532152

Откуда: Екатеринбург

Создавать темы 13-Янв-2018 00:05

[Цитировать]

Рапсодия иного мира, что началась с марша смерти / Death March kara Hajimaru Isekai Kyousoukyoku Страна: Япония
Год выпуска: 2018
Жанр: Приключения, фэнтези.
Тип: TV
Продолжительность: 12 эп. по 25 мин
Режиссер: Онума СинСтудия: Перевод:
Русские субтитры от Crunchyroll | Внешние.Описание: История рассказывает о 29-летнем программисте Ичиро Сузуки. Его жизнь меняется, когда он попадает в онлайн-игру, где становится 15-летним подростком по имени Сато. Поначалу молодой человек думает, что это сон, но на деле — нет. Кроме того, как выясняется, силой его персонаж не обделён. Во время нападения врагов Сато использует особую трёхразовую силу («метеоритный дождь»), которая стирает с лица земли армию ящеров, и при этом его уровень резко вырастает. Сила силой, но наш герой планирует спокойно жить, встречать новых друзей, скрывая свой уровень. Так или иначе, развитие игры, в частности возвращение Короля Демонов, встаёт у Сато на пути.Качество: WEBRip
Тип релиза: Без хардсаба
Формат видео: MKV
Релиз/Автор рипа: Erai-raws
Видео: x264 (8bit), 1920x1080, ~5274 Kbps, 23.976 fps
Аудио JAP: AAC, 44.1Hz, ~128Kbps, 2ch

Подробные тех. данные

GeneralUnique ID : 181254659266079540020626767770750391919 (0x885C60A958BDFCCEAA72463EA88D966F)Complete name : D:\ANIME\[Erai-raws] Death March kara Hajimaru Isekai Kyousoukyoku [1080]\[Erai-raws] Death March kara Hajimaru Isekai Kyousoukyoku - 01 [1080p].mkvFormat : MatroskaFormat version : Version 4 / Version 2File size : 915 MiBDuration : 23 min 40 sOverall bit rate : 5 405 kb/sEncoded date : UTC 2018-01-12 22:17:05Writing application : mkvmerge v17.0.0 ('Be Ur Friend') 64-bitWriting library : libebml v1.3.5 + libmatroska v1.4.8VideoID : 1Format : AVCFormat/Info : Advanced Video CodecFormat profile : High@L4Format settings, CABAC : YesFormat settings, RefFrames : 4 framesCodec ID : V_MPEG4/ISO/AVCDuration : 23 min 40 sBit rate : 5 274 kb/sWidth : 1 920 pixelsHeight : 1 080 pixelsDisplay aspect ratio : 16:9Frame rate mode : ConstantFrame rate : 23.976 (24000/1001) FPSColor space : YUVChroma subsampling : 4:2:0Bit depth : 8 bitsScan type : ProgressiveBits/(Pixel*Frame) : 0.106Stream size : 893 MiB (98%)Writing library : x264 core 142Encoding settings : cabac=1 / ref=4 / deblock=1:1:1 / analyse=0x3:0x113 / me=umh / subme=8 / psy=1 / psy_rd=0.40:0.00 / mixed_ref=1 / me_range=16 / chroma_me=1 / trellis=1 / 8x8dct=1 / cqm=0 / deadzone=21,11 / fast_pskip=1 / chroma_qp_offset=-2 / threads=12 / lookahead_threads=2 / sliced_threads=0 / nr=0 / decimate=1 / interlaced=0 / bluray_compat=0 / constrained_intra=0 / bframes=3 / b_pyramid=2 / b_adapt=2 / b_bias=0 / direct=3 / weightb=1 / open_gop=0 / weightp=2 / keyint=48 / keyint_min=24 / scenecut=40 / intra_refresh=0 / rc_lookahead=48 / rc=crf / mbtree=1 / crf=15.0 / qcomp=0.60 / qpmin=0 / qpmax=69 / qpstep=4 / vbv_maxrate=8000 / vbv_bufsize=12000 / crf_max=0.0 / nal_hrd=none / filler=0 / ip_ratio=1.40 / aq=1:0.60Default : YesForced : NoAudioID : 2Format : AACFormat/Info : Advanced Audio CodecFormat profile : LCCodec ID : A_AACDuration : 23 min 40 sBit rate : 128 kb/sChannel(s) : 2 channelsChannel positions : Front: L RSampling rate : 44.1 kHzFrame rate : 43.066 FPS (1024 SPF)Compression mode : LossyStream size : 21.7 MiB (2%)Default : YesForced : No

Список эпизодов

01. The Catastrophe That Started with a Death March \ Бедствие, что началось с марша смерти

Скриншоты




Для скачки контента: [Установить программу-клиент] и кликнуть по - СкачатьБезопасность: клиент проверен АВ Касперского

[asmlocator.ru].t493336.torrent 
Торрент: Зарегистрирован [ 2018-01-13 00:05 ] · 8858A2CAFD925F95967CB418177B2ECBF43258AC

Скачать .torrent

Скачать

19 KB

Статус: проверено
Скачан: 0 раз
Размер: 915 MB
terms.php
[Профиль] [ЛС]
Показать сообщения:    
Ответить на тему

Текущее время: 19-Июл 02:10

Часовой пояс: UTC ± 0



Вы не можете начинать темы
Вы не можете отвечать на сообщения
Вы не можете редактировать свои сообщения
Вы не можете удалять свои сообщения
Вы не можете голосовать в опросах
Вы не можете прикреплять файлы к сообщениям
Вы можете скачивать файлы