(IDM, Electro, Ambient) [CD] Derek Carr - The Digital Space Race - 2008, FLAC (image+.cue), lossless

Ответить на тему
Статистика раздачи
Размер:  370 MB   |    Зарегистрирован:  11 дней   |    Скачан:  0 раз

Полного источника не было: Никогда

 
   
 
 
Автор Сообщение

star21 ®

Пол: Не указан

Стаж: 2 года 2 месяца

Сообщений: 354172

Создавать темы 12-Янв-2018 21:15

[Цитировать]

Derek Carr / The Digital Space Race Жанр: IDM, Electro, Ambient
Носитель: CD
Год издания: 2008
Издатель (лейбл): Psychonavigation Records
Номер по каталогу: PSY 025
Аудиокодек: FLAC (*.flac)
Тип рипа: image+.cue
Битрейт аудио: lossless
Источник (релизер): получен по обмену
Наличие сканов в содержимом раздачи: да
Треклист:
1. Horizons
2. Butterfly
3. 678
4. Juvenile
5. Letters
6. Dilated Beyond Belief
7. Sis
8. Deported Emotion
9. Womb
10. Grassy Plains
11. Surrounded By Nature (Edit)

Лог создания рипа

Exact Audio Copy V0.99 prebeta 3 from 28. July 2007EAC extraction logfile from 20. August 2008, 19:24Derek Carr / The Digital Space RaceUsed drive  : HP      DVD Writer 940d   Adapter: 4  ID: 4Read mode               : SecureUtilize accurate stream : YesDefeat audio cache      : YesMake use of C2 pointers : NoRead offset correction                      : 6Overread into Lead-In and Lead-Out          : NoFill up missing offset samples with silence : YesDelete leading and trailing silent blocks   : NoNull samples used in CRC calculations       : YesUsed interface                              : Installed external ASPI interfaceUsed output format              : User Defined EncoderSelected bitrate                : 320 kBit/sQuality                         : HighAdd ID3 tag                     : NoCommand line compressor         : C:\Program Files\Exact Audio Copy\Flac\flac.exeAdditional command line options : --fast -T "ARTIST=%a" -T "TITLE=%t" -T "ALBUM=%g" -T "DATE=%y" -T "TRACKNUMBER=%n" -T "GENRE=%m" %sTOC of the extracted CD     Track |   Start  |  Length  | Start sector | End sector    ---------------------------------------------------------        1  |  0:00.00 |  6:15.00 |         0    |    28124        2  |  6:15.00 |  5:05.30 |     28125    |    51029        3  | 11:20.30 |  5:38.49 |     51030    |    76428        4  | 16:59.04 |  5:46.59 |     76429    |   102437        5  | 22:45.63 |  4:57.33 |    102438    |   124745        6  | 27:43.21 |  0:50.70 |    124746    |   128565        7  | 28:34.16 |  5:36.48 |    128566    |   153813        8  | 34:10.64 |  5:13.49 |    153814    |   177337        9  | 39:24.38 |  6:38.58 |    177338    |   207245       10  | 46:03.21 |  7:16.23 |    207246    |   239968       11  | 53:19.44 |  4:09.54 |    239969    |   258697Range status and errorsSelected range     Filename F:\Derek Carr - The Digital Space Race.wav     Peak level 99.9 %     Range quality 100.0 %     Test CRC 85A5E980     Copy CRC 85A5E980     Copy OKNo errors occurredAccurateRip summaryTrack  1  not present in databaseTrack  2  not present in databaseTrack  3  not present in databaseTrack  4  not present in databaseTrack  5  not present in databaseTrack  6  not present in databaseTrack  7  not present in databaseTrack  8  not present in databaseTrack  9  not present in databaseTrack 10  not present in databaseTrack 11  not present in databaseNone of the tracks are present in the AccurateRip databaseEnd of status report

Содержание индексной карты (.CUE)

REM GENRE ElectronicREM DATE 2008REM DISCID 8D0D790BREM COMMENT "ExactAudioCopy v0.99pb3"PERFORMER "Derek Carr"TITLE "The Digital Space Race"FILE "Derek Carr - The Digital Space Race.flac" WAVE  TRACK 01 AUDIO    TITLE "Horizons"    PERFORMER "Derek Carr"    INDEX 01 00:00:00  TRACK 02 AUDIO    TITLE "Butterfly"    PERFORMER "Derek Carr"    INDEX 01 06:15:00  TRACK 03 AUDIO    TITLE "678"    PERFORMER "Derek Carr"    INDEX 01 11:20:30  TRACK 04 AUDIO    TITLE "Juvenile"    PERFORMER "Derek Carr"    INDEX 01 16:59:04  TRACK 05 AUDIO    TITLE "Letters"    PERFORMER "Derek Carr"    INDEX 01 22:45:63  TRACK 06 AUDIO    TITLE "Dilated Beyond Belief"    PERFORMER "Derek Carr"    INDEX 01 27:43:21  TRACK 07 AUDIO    TITLE "Sis"    PERFORMER "Derek Carr"    INDEX 01 28:34:16  TRACK 08 AUDIO    TITLE "Deported Emotion"    PERFORMER "Derek Carr"    INDEX 01 34:10:64  TRACK 09 AUDIO    TITLE "Womb"    PERFORMER "Derek Carr"    INDEX 01 39:24:38  TRACK 10 AUDIO    TITLE "Grassy Plains"    PERFORMER "Derek Carr"    INDEX 01 46:03:21  TRACK 11 AUDIO    TITLE "Surrounded by nature (edit)"    PERFORMER "Derek Carr"    INDEX 01 53:19:44

Лог проверки качества

AUDIOCHECKER v2.0 beta (build 457) - by Dester - opdester@freemail.hu~~~~~~~~~~~~~~~~~~~~~~~~~~~~~~~~~~-=== DO NOT EDIT THIS FILE! ===-Path: ...\Derek Carr - The Digital Space Race - 20081 -=- Derek Carr - The Digital Space Race.flac -=- CDDA (100%)31973252

AccurateRip

Checking AccurateRip databaseTrack Ripping Status  [Disc ID: 0017a06f-8d0d790b] 1 Accurately Ripped    (confidence 4)     [5b83a055] 2 Accurately Ripped    (confidence 4)     [1d4ab166] 3 Accurately Ripped    (confidence 4)     [ac2a950f] 4 Accurately Ripped    (confidence 4)     [dbc5b6d2] 5 Accurately Ripped    (confidence 4)     [9ea6808f] 6 Accurately Ripped    (confidence 4)     [281e26ae] 7 Accurately Ripped    (confidence 4)     [a1122712] 8 Accurately Ripped    (confidence 4)     [ae5587ee] 9 Accurately Ripped    (confidence 4)     [7a4baf6f] 10 Accurately Ripped    (confidence 4)     [bb842901] 11 Accurately Ripped    (confidence 4)     [9cf5b244]_______________________All Tracks Accurately Ripped.

Для скачки контента: [Установить программу-клиент] и кликнуть по - Скачать

[asmlocator.ru].t493312.torrent 
Торрент: Зарегистрирован [ 2018-01-12 21:15 ] · 00F6BAAB922FEBDB95809AE5B0DCDA15051920DD

Скачать .torrent

Скачать

15 KB

Статус: проверено
Скачан: 0 раз
Размер: 370 MB
terms.php
[Профиль] [ЛС]
Показать сообщения:    
Ответить на тему

Текущее время: 24-Янв 07:23

Часовой пояс: UTC ± 0



Вы не можете начинать темы
Вы не можете отвечать на сообщения
Вы не можете редактировать свои сообщения
Вы не можете удалять свои сообщения
Вы не можете голосовать в опросах
Вы не можете прикреплять файлы к сообщениям
Вы можете скачивать файлы