(Melodic Hard`n`Heavy / Hard Rock) [WEB] Panorama - Around The World - 2018, FLAC (tracks), lossless

Ответить на тему
Статистика раздачи
Размер:  331 MB   |    Зарегистрирован:  6 месяцев 5 дней   |    Скачан:  0 раз

Полного источника не было: Никогда

 
   
 
 
Автор Сообщение

star21 ®

Пол: Женский

Стаж: 2 года 8 месяцев

Сообщений: 532154

Откуда: Екатеринбург

Создавать темы 12-Янв-2018 21:15

[Цитировать]


______________________________
Around The World
______________________________
Жанр: Melodic Hard`n`Heavy / Hard Rock
Носитель: WEB
Год издания: 2018
Издатель (лейбл): Rock Of Angels Records
Страна исполнителя (группы): Finland/USA/Switzerland
Аудиокодек: FLAC (*.flac)
Тип рипа: tracks
Битрейт аудио: lossless
Продолжительность: 00:44:37
Источник (релизер): qobuz
Наличие сканов в содержимом раздачи: нет Треклист:
1. Around The World
2. Standing My Ground
3. The Glory Within
4. Gates Of Babylon
5. The Highest Mountain
6. Jammin In The Jungle
7. One For All
8. The Other Side
9. Heart Has Been Broken
10. Shout It Out
11. World On FirePanorama - Around The World (Official Album Teaser)

Лог проверки качества

-----------------------DON'T MODIFY THIS FILE-----------------------PERFORMER: auCDtect Task Manager, ver. 1.6.0 RC1 build 1.6.0.1Copyright (c) 2008-2010 y-soft. All rights reservedhttp://y-soft.orgANALYZER: auCDtect: CD records authenticity detector, version 0.8.2Copyright (c) 2004 Oleg Berngardt. All rights reserved.Copyright (c) 2004 Alexander Djourik. All rights reserved.FILE: 11 World on Fire.flac  Size: 32888671 Hash: 56D7D72245DFA0C9E1A547FB046256D3 Accuracy: -m0  Conclusion: CDDA 100%  Signature: C7E294D7855D5F7BB907C51211599511CD7A35D0FILE: 10 Shout It Out.flac  Size: 30883333 Hash: BAC1D28644AF6B767EFFF8F2698DE797 Accuracy: -m0  Conclusion: CDDA 100%  Signature: 63128B06279601308EBB617C40D5F2F51AFEF140FILE: 09 Heart Has Been Broken.flac  Size: 31191981 Hash: 0D463F8B7CB7593A5AA4CB51E5E0B536 Accuracy: -m0  Conclusion: CDDA 100%  Signature: 7F6F13929FA4A0BFFA0BA316F346F9CB2B6817A2FILE: 08 The Other Side.flac  Size: 29625723 Hash: 23E9FCD2DD3A62815D0BFFCE99233C57 Accuracy: -m0  Conclusion: CDDA 100%  Signature: 593E75509C18C795A006EDB5686E0A3802DC62A7FILE: 07 One for All.flac  Size: 38873443 Hash: FC3D71C3B6E0815AC6DC3784BAFF686A Accuracy: -m0  Conclusion: CDDA 100%  Signature: 7FCBDB22372555F88602B583104FA93EA5D22ECEFILE: 06 Jammin in the Jungle.flac  Size: 28068067 Hash: 873CA57E0DEBBF7D45AC9E4314C05993 Accuracy: -m0  Conclusion: CDDA 100%  Signature: BCF7AE9BECF1D3EA20C9FF695BF5B3E8F4D2457FFILE: 05 The Highest Mountain.flac  Size: 23616398 Hash: BA282C28210C680B90DC289D907D17C8 Accuracy: -m0  Conclusion: CDDA 100%  Signature: 7D3C72E96E37C4E0977DC5E4E42F5D33B6914230FILE: 04 Gates of Babylon.flac  Size: 28958718 Hash: 34FBF1131D2582644938E793E36B3268 Accuracy: -m0  Conclusion: CDDA 100%  Signature: 77F756807B062D4DE3534703841CF147841A2965FILE: 03 The Glory Within.flac  Size: 38898304 Hash: B771DECA3A3F3A78A2BF3A2E8BC0FAB4 Accuracy: -m0  Conclusion: CDDA 100%  Signature: 816EF4AAC9ED8FE4C2DC54BCAF4BF71A1567421FFILE: 02 Standing My Ground.flac  Size: 30533881 Hash: 3280FC803B5D86347BA35B18E98FF4B6 Accuracy: -m0  Conclusion: CDDA 100%  Signature: 702C1EA0D1C928AE913FF37372E1BEE8C995BB6EFILE: 01 Around the World.flac  Size: 32316891 Hash: FA8DEF49002405A5D7A0FABF60293AC7 Accuracy: -m0  Conclusion: CDDA 100%  Signature: 1B424B0C03811B530BD11263B126DEDE6BAC35A3

DRM log

foobar2000 1.2.9 / Dynamic Range Meter 1.1.1log date: 2018-01-12 19:43:34--------------------------------------------------------------------------------Analyzed: Panorama / Around the World--------------------------------------------------------------------------------DR         Peak         RMS     Duration Track--------------------------------------------------------------------------------DR6       -0.20 dB    -7.53 dB      4:07 01-Around the WorldDR6       -0.20 dB    -7.37 dB      3:57 02-Standing My GroundDR6       -0.20 dB    -7.90 dB      5:00 03-The Glory WithinDR7       -0.20 dB    -7.63 dB      3:40 04-Gates of BabylonDR6       -0.20 dB    -8.54 dB      3:15 05-The Highest MountainDR6       -0.20 dB    -7.28 dB      3:39 06-Jammin in the JungleDR6       -0.20 dB    -7.80 dB      5:07 07-One for AllDR6       -0.20 dB    -7.39 dB      3:50 08-The Other SideDR6       -0.20 dB    -7.14 dB      4:01 09-Heart Has Been BrokenDR6       -0.20 dB    -7.29 dB      3:54 10-Shout It OutDR6       -0.20 dB    -6.81 dB      4:13 11-World on Fire--------------------------------------------------------------------------------Number of tracks:  11Official DR value: DR6Samplerate:        44100 HzChannels:          2Bits per sample:   16Bitrate:           1038 kbpsCodec:             FLAC================================================================================
Доп. информация: rockngrowl.com

Состав

Christian Palin – Vocals (Random Eyes, ex Adagio)
Dennis Ward – Bass (Unisonic, Pink Cream 69)
Sammy Lasagni – Guitars (Gods of Silence, ex Kirk, ex Godiva)
Ben Varon – Guitars (Amoral, ex Grease Helmet)
Philipp Eichenberger – Drums (Gods of Silence, ex Kirk)

Для скачки контента: [Установить программу-клиент] и кликнуть по - СкачатьБезопасность: клиент проверен АВ Касперского

[asmlocator.ru].t493294.torrent 
Торрент: Зарегистрирован [ 2018-01-12 21:15 ] · A78414E0029D1AE4494938BAE799B54B41122F1B

Скачать .torrent

Скачать

14 KB

Статус: проверено
Скачан: 0 раз
Размер: 331 MB
terms.php
[Профиль] [ЛС]
Показать сообщения:    
Ответить на тему

Текущее время: 18-Июл 10:57

Часовой пояс: UTC ± 0



Вы не можете начинать темы
Вы не можете отвечать на сообщения
Вы не можете редактировать свои сообщения
Вы не можете удалять свои сообщения
Вы не можете голосовать в опросах
Вы не можете прикреплять файлы к сообщениям
Вы можете скачивать файлы