Чистые пруды (Алексей Сахаров) [1965, драма, DVB-AVC]

Ответить на тему
Статистика раздачи
Размер:  999 MB   |    Зарегистрирован:  11 дней   |    Скачан:  0 раз

Полного источника не было: Никогда

 
   
 
 
Автор Сообщение

star21 ®

Пол: Не указан

Стаж: 2 года 2 месяца

Сообщений: 354172

Создавать темы 12-Янв-2018 21:15

[Цитировать]

Чистые пруды Жанр: драма
Год выпуска: 1965
Продолжительность: 01:16:00Режиссёр: Алексей СахаровВ ролях: Александр Збруев, Евгения Филонова, Людмила Гладунко, Тамара Сёмина, Светлана Светличная, Владимир Евстафьев, Нина Агапова, Николай Крюков, Нина Меньшикова, Вячеслав НевинныйОписание: Поэтическая драма по мотивам произведений Юрия Нагибина.
Четверо неразлучных друзей - Сережа, Нина, Оська и Женя - все свое школьное детство провели на Чистых прудах. Но окончена школа - и в своей любимой беседке они мечтают о будущем, клянутся друг другу в верности. Ребята договариваются встретиться через 20 лет, но встречаются через пять, когда уходят на фронт. И не встречаются уже никогда...Доп. информация: запись с IPTV в Беларуси, ремукс записи потока *.ts в *.mkv программой VideoReDo. В начале - баннер о вреде курения (см. последний скриншот).
Производство: Мосфильм, ТО "Юность"
Сценарий: Белла Ахмадулина, Юрий Нагибин
Оператор: Леонид Калашников
Художник: Иван Пластинкин
Композитор: Юрий ЛевитинСемпл: http://sendfile.su/1391024Качество видео: DVB
Формат видео: MKVВидео: AVC (H264), 720x576@785x576 (4:3), анаморф, 25 fps, 1610 kbps
Аудио: MP2, 192 kbps, 2 channels, 48 kHz

MediaInfo

GeneralUnique ID                                : 51211530922719411994747821248457663179 (0x2686FB6A43615C9E53F2E0DC39F6E2CB)Complete name                            : D:\Work\Video\Чистые пруды.mkvFormat                                   : MatroskaFormat version                           : Version 2File size                                : 999 MiBDuration                                 : 1 h 16 minOverall bit rate                         : 1 838 kb/sWriting application                      : Lavf54.63.104Writing library                          : Lavf54.63.104VideoID                                       : 1Format                                   : AVCFormat/Info                              : Advanced Video CodecFormat profile                           : High@L3Format settings, CABAC                   : YesFormat settings, ReFrames                : 4 framesFormat settings, GOP                     : M=4, N=28Codec ID                                 : V_MPEG4/ISO/AVCDuration                                 : 1 h 16 minBit rate                                 : 1 610 kb/sWidth                                    : 720 pixelsHeight                                   : 576 pixelsDisplay aspect ratio                     : 4:3Original display aspect ratio            : 4:3Frame rate mode                          : ConstantFrame rate                               : 25.000 FPSStandard                                 : ComponentColor space                              : YUVChroma subsampling                       : 4:2:0Bit depth                                : 8 bitsScan type                                : InterlacedScan type, store method                  : Separated fieldsScan order                               : Top Field FirstBits/(Pixel*Frame)                       : 0.155Stream size                              : 875 MiB (88%)Default                                  : NoForced                                   : NoColor range                              : LimitedColor primaries                          : BT.601 PALTransfer characteristics                 : BT.470 System B, BT.470 System GMatrix coefficients                      : BT.601AudioID                                       : 2Format                                   : MPEG AudioFormat version                           : Version 1Format profile                           : Layer 2Codec ID                                 : A_MPEG/L2Codec ID/Hint                            : MP2Duration                                 : 1 h 16 minBit rate mode                            : ConstantBit rate                                 : 192 kb/sChannel(s)                               : 2 channelsSampling rate                            : 48.0 kHzCompression mode                         : LossyStream size                              : 104 MiB (10%)Language                                 : RussianDefault                                  : YesForced                                   : No

Скриншоты

Для скачки контента: [Установить программу-клиент] и кликнуть по - Скачать

[asmlocator.ru].t493271.torrent 
Торрент: Зарегистрирован [ 2018-01-12 21:15 ] · D6EF1E2845938175E0D99F5862F451056FD4BA43

Скачать .torrent

Скачать

20 KB

Статус: проверено
Скачан: 0 раз
Размер: 999 MB
terms.php
[Профиль] [ЛС]
Показать сообщения:    
Ответить на тему

Текущее время: 24-Янв 07:26

Часовой пояс: UTC ± 0



Вы не можете начинать темы
Вы не можете отвечать на сообщения
Вы не можете редактировать свои сообщения
Вы не можете удалять свои сообщения
Вы не можете голосовать в опросах
Вы не можете прикреплять файлы к сообщениям
Вы можете скачивать файлы