Кейт и Лео / Kate & Leopold (Джеймс Мэнголд / James Mangold) [2001, фэнтези, комедия, мелодрама, HDRip] [Режиссерская версия / Director\'s cut] AVO (Гаврилов)

Ответить на тему
Статистика раздачи
Размер:  1,46 GB   |    Зарегистрирован:  11 дней   |    Скачан:  0 раз

Полного источника не было: Никогда

 
   
 
 
Автор Сообщение

star21 ®

Пол: Не указан

Стаж: 2 года 2 месяца

Сообщений: 354172

Создавать темы 12-Янв-2018 21:15

[Цитировать]

Кейт и Лео / Kate & Leopold
Режиссерская версия / Director's cut Страна: США
Жанр: фэнтези, комедия, мелодрама
Год выпуска: 2001
Продолжительность: 02:03:00Перевод: Авторский (одноголосый закадровый) Андрей Гаврилов
Субтитры: нет
Оригинальная аудиодорожка: нетРежиссер: Джеймс Мэнголд / James MangoldВ ролях: Мег Райан, Хью Джекман, Лив Шрайбер, Брекин Мейер, Наташа Лионн, Брэдли Уитфорд, Пэкстон Уайтхед, Сполдинг Грей, Джош Стэмберг, Мэттью Суссман, Шарлотта Айянна, Филип Боско, Эндрю Джек, Стэн Трэйси, Кристен Шааль, Уильям Санфорд, Артур Дж. Наскарелла, Роберт Рэй Мэннинг мл., Рома Торре, Виола ДэвисОписание: Сквозь прореху во времени Лео, герцог Олбанский, попадает в будущее, а точнее — в современный Нью-Йорк. Обаятельный джентльмен XIX столетия неожиданно оказывается в стремительном мире, где успешно завоевывает высоты деловая женщина — Кейт Маккей. Невероятное случилось, и они встретились! Теперь Лео нельзя оставлять без присмотра ни на минуту! Во всяком случае, до тех пор, пока он не сможет вернуться обратно...Доп. информация:

Рип мой, исходник - BDRip 720pПеревод состоялся благодаря пользователям форума dunhill200: Gross1978, vovyanskiy, mazeu, chefichef, Schmulke, saenwert, karantin66, jovi, luka69, Volshebnik, SHIP, Chistobaev, ylnian, olegsoleg, Tagansky, bolegСэмпл: http://multi-up.com/1182751Качество видео: HDRip
Формат видео: AVIВидео: XviD; 720x400 (16:9); 1310 Kbps; 23,976 fps; 0,190 bit/pixel
Аудио: AC3; 48 kHz, 384 Kbps; CBR; 6 ch

MediaInfo

Общее
Полное имя : Kate.Leopold.directors.cut.2001.HDRip.Gavrilov.lumpeN.avi
Формат : AVI
Формат/Информация : Audio Video Interleave
Размер файла : 1,46 Гбайт
Продолжительность : 2 ч. 3 м.
Общий поток : 1703 Кбит/сек
Программа кодирования : VirtualDubMod 1.5.10.2 (build 2540/release)
Библиотека кодирования : VirtualDubMod build 2540/releaseВидео
Идентификатор : 0
Формат : MPEG-4 Visual
Профиль формата : Advanced Simple@L5
Настройки формата : BVOP1
Параметр BVOP формата : 1
Параметр QPel формата : Нет
Параметр GMC формата : Без точки перехода
Параметр матрицы формата : Default (MPEG)
Идентификатор кодека : XVID
Идентификатор кодека/Подсказка : XviD
Продолжительность : 2 ч. 3 м.
Битрейт : 1310 Кбит/сек
Ширина : 720 пикселей
Высота : 400 пикселей
Соотношение сторон : 16:9
Частота кадров : 23,976 (24000/1001) кадра/сек
Цветовое пространство : YUV
Субдискретизация насыщенности : 4:2:0
Битовая глубина : 8 бит
Тип развёртки : Прогрессивная
Метод сжатия : С потерями
Бит/(Пиксели*Кадры) : 0.190
Размер потока : 1,13 Гбайт (77%)
Библиотека кодирования : XviD 67Аудио
Идентификатор : 1
Формат : AC-3
Формат/Информация : Audio Coding 3
Идентификатор кодека : 2000
Продолжительность : 2 ч. 3 м.
Вид битрейта : Постоянный
Битрейт : 384 Кбит/сек
Каналы : 6 каналов
Расположение каналов : Front: L C R, Side: L R, LFE
Частота : 48,0 КГц
Частота кадров : 31,250 кадров/сек (1536 SPF)
Битовая глубина : 16 бит
Метод сжатия : С потерями
Размер потока : 338 Мбайт (23%)
Выравнивание : Разделение по промежуткам
Продолжительность промежутка : 42 мс. (1,00 видеокадр)
Время предзагрузки промежутка : 500 мс.
Заголовок : Gavrilov
ServiceKind/String : Complete Main

Скриншоты

Для скачки контента: [Установить программу-клиент] и кликнуть по - Скачать

[asmlocator.ru].t493268.torrent 
Торрент: Зарегистрирован [ 2018-01-12 21:15 ] · 9FBF7CE48B1A6CA43A329020B1E6C56DB9098F41

Скачать .torrent

Скачать

15 KB

Статус: проверено
Скачан: 0 раз
Размер: 1,46 GB
terms.php
[Профиль] [ЛС]
Показать сообщения:    
Ответить на тему

Текущее время: 24-Янв 07:26

Часовой пояс: UTC ± 0



Вы не можете начинать темы
Вы не можете отвечать на сообщения
Вы не можете редактировать свои сообщения
Вы не можете удалять свои сообщения
Вы не можете голосовать в опросах
Вы не можете прикреплять файлы к сообщениям
Вы можете скачивать файлы