Когда солнце упало с неба / The Day the Sun Fell / Als die Sonne vom Himmel fiel (Айа Домениг / Aya Domenig) [2015, Швейцария, документальный, DVDRip] + Sub Rus + Original Ger Jap

Ответить на тему
Статистика раздачи
Размер:  1,37 GB   |    Зарегистрирован:  3 месяца 12 дней   |    Скачан:  0 раз
Сидов:  1  [  0 KB/s  ]   Подробная статистика пиров
 
   
 
 
Автор Сообщение

star21 ®

Пол: Не указан

Стаж: 2 года 5 месяцев

Сообщений: 519518

Создавать темы 12-Янв-2018 21:15

[Цитировать]

Когда солнце упало с неба / The Day the Sun Fell / Als die Sonne vom Himmel fielСтрана: Швейцария
Жанр: документальный
Год выпуска: 2015
Продолжительность: 01:18:12Перевод: Субтитры русские - дед_сто_лет©
Оригинальная аудиодорожка: немецкий, японскийРежиссер: Айа Домениг / Aya DomenigВ ролях: Киёми ДОИ, Тидзуко УТИДА, Сюнтаро ХИДА, Хитоси КАИ, Маи НАКАТА, Сёэй НАКАТА, Каёко МИЯДЗИ, Тэруко УЭНО, Нацуко ИСИКАВА, Тиэко МАЦУМОТО, Цуюко НАКАКИТА, Хироми ЦУДЗИ, Хидэки ТАБИИ, Кадзуми МИРАТАНИ, Тосимаса САСАКИ, Сатоси УРАБЭ, Миёко ДОИ, Ёсия ДОИ, Миэко ДОИОписание: Автор фильма, Айа Домениг, родилась в Японии, её дед был врачом, и оказывал помощь в Хиросима в первые дни после бомбардировки. Айа видит, что раны нанесенные атомным взрывом не зажили в Японии до сих пор. Страх охватывает всё японское общество, это и страх радиации, и ненависть к людям, подвергшимся её действию, и возмущение против атомной электроэнергии. Катастрофа на атомной станции Фукусима в 2014 году вызывает новую невероятную волну страха и протеста, призраки вновь возникают из тьмы и поражают сердца людей. Хотя участники фильма сами были очевидцами катастрофы, их свидетельства не всегда вызывают доверие, поскольку они больше основаны на эмоциях, а не на доказанных фактах.© > > > > > [imdb]http://www.imdb.com/title/tt4929364[/imdb]Качество видео: DVDRip
Формат видео: AVI
МОИ РЕЛИЗЫ В РАЗДЕЛЕ АРТ-ХАУСВидео: 720x416 (1.73:1), 25 fps, XviD build 50 ~2310 kbps avg, 0.31 bit/pixel
Аудио: 48 kHz, MPEG Layer 3, 2 ch, ~192.00 kbps avg
Формат субтитров: softsub (SRT)
Доп. информация о субтитрах: дед_сто_лет

Пример субтитров

340
00:33:09,760 --> 00:33:11,728
Она тоже больная.341
00:33:19,800 --> 00:33:21,609
Она не работает.342
00:33:25,080 --> 00:33:28,880
Это боязнь камеры.
Эта машина тоже боится камеры.343
00:33:41,800 --> 00:33:46,203
Радиация разрушает
внутренние структуры тела.344
00:33:46,960 --> 00:33:50,328
Она поражает все органы подряд...345
00:33:50,520 --> 00:33:55,765
... щитовидку, матку,
лёгкие, кишки, печень...346
00:33:58,120 --> 00:34:02,887
Даже если снаружи это незаметно...347
00:34:03,080 --> 00:34:05,651
... внутри тело разрушается.348
00:34:15,440 --> 00:34:20,526
А врачи сами тоже боялись заболеть?349
00:34:20,800 --> 00:34:21,926
Да, боялись.350
00:34:22,600 --> 00:34:27,640
Сначала мы не понимали, что пациенты
называют "крайним истощением".351
00:34:27,840 --> 00:34:31,686
Некоторые врачи считали, что
это психическое расстройство.352
00:34:32,040 --> 00:34:34,850
Пока у них самих
не возникло нечто подобное.353
00:34:35,040 --> 00:34:38,169
И всё равно это не расценивалось,
как физическое расстройство.354
00:34:38,880 --> 00:34:41,850
Американцы утверждали,
что нет ничего страшного.355
00:34:43,200 --> 00:34:46,010
Мы не знали, кому можно верить.356
00:34:47,000 --> 00:34:52,404
Некоторые врачи теряли сознание и умирали.357
00:34:54,400 --> 00:34:56,243
Вы тоже боялись?358
00:34:57,600 --> 00:34:59,011
Ну...359
00:35:01,120 --> 00:35:03,566
... я думал "будь, что будет".360
00:35:05,600 --> 00:35:09,810
Если заболею, значит, такая моя судьба.361
00:35:10,520 --> 00:35:13,944
Я не очень беспокоился.362
00:35:25,760 --> 00:35:30,361
<i>В начале 50-х годов американская
оккупация закончилась.</i>363
00:35:30,840 --> 00:35:35,806
<i>Большинство людей хотели
всё забыть и жить дальше.</i>364
00:35:37,000 --> 00:35:39,810
<i>Дедушка с бабушкой вернулись в город.</i>

MediaInfo

GeneralComplete name                    : C:\...\Als.die.Sonne.vom.Himmel.fiel(2015)\Als.die.Sonne.vom.Himmel.fiel(2015)Aya.Domenig.aviFormat                           : AVIFormat/Info                      : Audio Video InterleaveFile size                        : 1.37 GiBDuration                         : 1h 18mnOverall bit rate                 : 2 509 KbpsWriting application              : VirtualDubMod 1.5.4.1 (build 2178/release)Writing library                  : VirtualDubMod build 2178/releaseVideoID                               : 0Format                           : MPEG-4 VisualFormat profile                   : Advanced Simple@L5Format settings, BVOP            : NoFormat settings, QPel            : NoFormat settings, GMC             : No warppointsFormat settings, Matrix          : CustomCodec ID                         : XVIDCodec ID/Hint                    : XviDDuration                         : 1h 18mnBit rate                         : 2 310 KbpsWidth                            : 720 pixelsHeight                           : 416 pixelsDisplay aspect ratio             : 16:9Frame rate                       : 25.000 fpsColor space                      : YUVChroma subsampling               : 4:2:0Bit depth                        : 8 bitsScan type                        : ProgressiveCompression mode                 : LossyBits/(Pixel*Frame)               : 0.308Stream size                      : 1.26 GiB (92%)Writing library                  : XviD 1.2.1 (UTC 2008-12-04)AudioID                               : 1Format                           : MPEG AudioFormat version                   : Version 1Format profile                   : Layer 3Mode                             : Joint stereoMode extension                   : MS StereoCodec ID                         : 55Codec ID/Hint                    : MP3Duration                         : 1h 18mnBit rate mode                    : ConstantBit rate                         : 192 KbpsChannel(s)                       : 2 channelsSampling rate                    : 48.0 KHzCompression mode                 : LossyStream size                      : 107 MiB (8%)Alignment                        : Aligned on interleavesInterleave, duration             : 80 ms (2.00 video frames)Interleave, preload duration     : 504 msWriting library                  : LAME3.98rEncoding settings                : -m j -V 4 -q 2 -lowpass 18.6 -b 192

Скриншот c названием фильма

Скриншоты

Для скачки контента: [Установить программу-клиент] и кликнуть по - Скачать

[asmlocator.ru].t493267.torrent 
Торрент: Зарегистрирован [ 2018-01-12 21:15 ] · EA2A95DD33C6B49A4EA8D5D44141559C34CFD030

Скачать .torrent

Скачать

14 KB

Статус: проверено
Скачан: 0 раз
Размер: 1,37 GB
terms.php
[Профиль] [ЛС]
Показать сообщения:    
Ответить на тему

Текущее время: 25-Апр 00:54

Часовой пояс: UTC ± 0



Вы не можете начинать темы
Вы не можете отвечать на сообщения
Вы не можете редактировать свои сообщения
Вы не можете удалять свои сообщения
Вы не можете голосовать в опросах
Вы не можете прикреплять файлы к сообщениям
Вы можете скачивать файлы