Время Приключений / Adventure Time / Сезон: 8 / Серии: 27 из 27 (Ларри Лэйчлитер / Larry Leichliter) [2016-17, США, фэнтези, комедия, приключения, WEB-DL 720p] VO (Т.О Друзей) + Original + Sub (Rus)

Ответить на тему
Статистика раздачи
Размер:  9,32 GB   |    Зарегистрирован:  11 дней   |    Скачан:  0 раз

Полного источника не было: Никогда

 
   
 
 
Автор Сообщение

star21 ®

Пол: Не указан

Стаж: 2 года 2 месяца

Сообщений: 354172

Создавать темы 12-Янв-2018 12:55

[Цитировать]

Время Приключений / Adventure Time Страна: США
Жанр: Мультфильм, фэнтези, комедия, приключения
Продолжительность: ~11мин
Год выпуска: 2016-17
Перевод: Одноголосый закадровый (Т.О Друзей)
Русские субтитры: есть (J-sUn)Режиссёр: Ларри Лэйчлитер / Larry Leichliter
Описание: Пора Приключений - американский анимационный сериал, созданный Пендлтоном Вордом. Сериал повествует о необыкновенных и весёлых приключениях двух лучших друзей: мальчика Финна и его собаки Джейка. Действие сериала происходит в волшебной стране Ууу. Финн - 13-летний мальчик, который обожает путешествовать и спасать принцесс из лап ужасных монстров и злодеев, населяющих Землю Ууу. Джейк - лучший друг Финна. Это волшебная собака со способностью растягивать своё тело до практически любых размеров и форм. Джейку 28 лет и он исполняет роль эдакого приятеля-наставника Финна, а его волшебные способности помогают мальчику в его борьбе со злом.Семпл: SendfileКачество: WEB-DL
Формат: MKV
Видео: AVC, 1280x720, 23.976fps, ~4000 Kbps
Аудио 1: [Озвучка] AAC, 48.0 KHz, 2 channels, 256 Kbps
Аудио 2: [Оригинал] AAC, 48.0 KHz, 2 channels, 160 Kbps
Субтитры: Русские ass

Изменения в раздаче

12.01.2018 Создана раздача.
Для тех кто не понимает почему в 8-ом сезоне 27 серий СЮДА
Все раздачи мультсериала | 6-й Сезон | 7-й Сезон | 8-й Сезон

Список серий

S08E01 - Broke His Crown \ Сломал Свою Корону
S08E02 - Don't Look \ Не Смотри
S08E03 - Beyond the Grotto \ За Гротом
S08E04 - Lady Rainicorn of the Crystal Dimension \ Леди Радугарог из Кристального Измерения
S08E05 - I Am a Sword \ Я Меч
S08E06 - Bun Bun \ Бан Бан
S08E07 - Normal Man \ Нормальный Чел
S08E08 - Elemental \ Элементаль
S08E09 - Five Short Tables \ Пять Коротких Столиков
S08E10 - The Music Hole \ Музыкальная Яма
S08E11 - Daddy-Daughter Card Wars \ Карточные Войны с Папой и Дочкой
S08E12 - Preboot \ ПРЕДЗАГРУЗКА
S08E13 - Reboot \ ПЕРЕЗАГРУЗКА
S08E14 - Two Swords \ Два Меча
S08E15 - Do No Harm \ Не Навреди
S08E16 - Wheels \ Колёса
S08E17 - High Strangeness \ Повышенная Странность
S08E18 - Horse and Ball \ Лошадь и Мяч
S08E19 - Jelly Beans Have Power \ У Желейных Бобов Есть Сила
S08E20 - Islands Part 1 The Invitation \ Приглашение
S08E21 - Islands Part 2 Whipple the Happy Dragon \ Счастливый Дракон Уиппл
S08E22 - Islands Part 3 Mysterious Island \ Таинственный Остров
S08E23 - Islands Part 4 Imaginary Resources \ Воображаемые Ресурсы
S08E24 - Islands Part 5 Hide and Seek \ Прятки
S08E25 - Islands Part 6 Min & Marty \ Мин и Марти
S08E26 - Islands Part 7 Helpers \ Помощники
S08E27 - Islands Part 8 The Light Cloud \ Облако Света

Подробные технические данные

GeneralUnique ID                   : 217702792234447432419090563899313786427 (0xA3C8085C04F2BE5EB620969FCDBE8E3B)Complete name               : O:\AT 8\S08E01 - Broke His Crown.mkvFormat                      : MatroskaFormat version              : Version 4 / Version 2File size                   : 352 MiBDuration                    : 10 min 49 sOverall bit rate            : 4 549 kb/sEncoded date                : UTC 2018-01-12 09:24:23Writing application         : mkvmerge v15.0.0 ('Duel with the Devil') 64-bitWriting library             : libebml v1.3.5 + libmatroska v1.4.5VideoID                          : 1Format                      : AVCFormat/Info                 : Advanced Video CodecFormat profile              : High@L3.1Format settings, CABAC      : NoFormat settings, ReFrames   : 2 framesCodec ID                    : V_MPEG4/ISO/AVCDuration                    : 10 min 49 sBit rate                    : 4 133 kb/sWidth                       : 1 280 pixelsHeight                      : 720 pixelsDisplay aspect ratio        : 16:9Frame rate mode             : ConstantFrame rate                  : 23.976 FPSColor space                 : YUVChroma subsampling          : 4:2:0Bit depth                   : 8 bitsScan type                   : ProgressiveBits/(Pixel*Frame)          : 0.187Stream size                 : 320 MiB (91%)Language                    : EnglishDefault                     : NoForced                      : NoColor range                 : LimitedColor primaries             : BT.709Transfer characteristics    : BT.709Matrix coefficients         : BT.709Audio #1ID                          : 2Format                      : AACFormat/Info                 : Advanced Audio CodecFormat profile              : LCCodec ID                    : A_AACDuration                    : 10 min 49 sBit rate                    : 256 kb/sChannel(s)                  : 2 channelsChannel positions           : Front: L RSampling rate               : 48.0 kHzFrame rate                  : 46.875 FPS (1024 spf)Compression mode            : LossyDelay relative to video     : 9 msStream size                 : 19.8 MiB (6%)Language                    : RussianDefault                     : YesForced                      : YesAudio #2ID                          : 3Format                      : AACFormat/Info                 : Advanced Audio CodecFormat profile              : LCCodec ID                    : A_AACDuration                    : 10 min 49 sBit rate                    : 157 kb/sChannel(s)                  : 2 channelsChannel positions           : Front: L RSampling rate               : 48.0 kHzFrame rate                  : 46.875 FPS (1024 spf)Compression mode            : LossyDelay relative to video     : 7 msStream size                 : 12.2 MiB (3%)Language                    : EnglishDefault                     : NoForced                      : No

Скриншоты

Для скачки контента: [Установить программу-клиент] и кликнуть по - Скачать

[asmlocator.ru].t493171.torrent 
Торрент: Зарегистрирован [ 2018-01-12 12:55 ] · A0959C4FD3CBDFD5CC200207ECEDA7584E9C67D9

Скачать .torrent

Скачать

27 KB

Статус: проверено
Скачан: 0 раз
Размер: 9,32 GB
terms.php
[Профиль] [ЛС]
Показать сообщения:    
Ответить на тему

Текущее время: 24-Янв 07:30

Часовой пояс: UTC ± 0



Вы не можете начинать темы
Вы не можете отвечать на сообщения
Вы не можете редактировать свои сообщения
Вы не можете удалять свои сообщения
Вы не можете голосовать в опросах
Вы не можете прикреплять файлы к сообщениям
Вы можете скачивать файлы