(Arctic Ambient, Dark Ambient, Experimental) [CD, WEB] Glacial Movements Records Label (Netherworld, Oophoi, bvdub, Lull, Celer) (35 релизов) - [GM001] - [WSGM001] - 2006 - 2017, FLAC (tracks+.cue, tracks, image+.cue), lossless

Ответить на тему
Статистика раздачи
Размер:  8,63 GB   |    Зарегистрирован:  6 месяцев 14 дней   |    Скачан:  0 раз

Полного источника не было: 2 месяца 8 дней

 
   
 
 
Автор Сообщение

star21 ®

Пол: Женский

Стаж: 2 года 8 месяцев

Сообщений: 532152

Откуда: Екатеринбург

Создавать темы 05-Янв-2018 01:51

[Цитировать]

Glacial Movements Records Жанр: Arctic Ambient, Dark Ambient, Experimental
Год выпуска диска: 2006 - 2017
Страна: Italy
Аудио кодек: FLAC
Тип рипа: tracks, tracks+.cue, image+.cue
Битрейт аудио: lossless
Продолжительность: 1d 09:24:06
Источник: what.cd / rutracker / RED
Discogs.com

[GM001] Various ‎– Cryosphere (2006) (CDr)

Продолжительность: 1:19:24
Трэклист:
01 - Closing The Eternity - Pulse Of Iceilence (7:57)
02 - Northaunt - Crocker Land (6:11)
03 - Tho-So-Aa - Cryotesk (9:33)
04 - Lightwave - Proxima Thule (8:58)
05 - Tuu - Silent Writing (7:26)
06 - Troum - Giascei (11:57)
07 - Aidan Baker - Beneath The Ice (10:17)
08 - Netherworld - Kryos (10:14)
09 - Oophoi - Cold Sun (6:51)

log

Exact Audio Copy V0.99 prebeta 5 from 4. May 2009EAC extraction logfile from 22. February 2010, 1:10Various / CryosphereUsed drive  : PIONEER DVD-RW  DVR-109   Adapter: 5  ID: 0Read mode               : SecureUtilize accurate stream : YesDefeat audio cache      : YesMake use of C2 pointers : NoRead offset correction                      : 48Overread into Lead-In and Lead-Out          : NoFill up missing offset samples with silence : YesDelete leading and trailing silent blocks   : NoNull samples used in CRC calculations       : YesUsed interface                              : Native Win32 interface for Win NT & 2000Gap handling                                : Appended to previous trackUsed output format              : User Defined EncoderSelected bitrate                : 128 kBit/sQuality                         : HighAdd ID3 tag                     : NoCommand line compressor         : C:\Program Files\FLAC\flac.exeAdditional command line options : -V -8 -T "artist=%a" -T "title=%t" -T "album=%g" -T "date=%y" -T "tracknumber=%n" -T "genre=%m" %sTOC of the extracted CD     Track |   Start  |  Length  | Start sector | End sector    ---------------------------------------------------------        1  |  0:00.00 |  7:56.51 |         0    |    35750        2  |  7:56.51 |  6:10.45 |     35751    |    63545        3  | 14:07.21 |  9:33.31 |     63546    |   106551        4  | 23:40.52 |  8:58.00 |    106552    |   146901        5  | 32:38.52 |  7:26.12 |    146902    |   180363        6  | 40:04.64 | 11:57.03 |    180364    |   234141        7  | 52:01.67 | 10:16.50 |    234142    |   280391        8  | 62:18.42 | 10:14.31 |    280392    |   326472        9  | 72:32.73 |  6:50.50 |    326473    |   357272Track  1     Filename E:\cdda\01 - Closing The Eternity - Pulse Of Iceilence.wav     Pre-gap length  0:00:02.00     Peak level 98.0 %     Track quality 100.0 %     Test CRC CC7E4AAC     Copy CRC CC7E4AAC     Accurately ripped (confidence 2)  [781D457E]     Copy OKTrack  2     Filename E:\cdda\02 - Northaunt - Crocker Land.wav     Peak level 99.9 %     Track quality 100.0 %     Test CRC 700E4D07     Copy CRC 700E4D07     Accurately ripped (confidence 2)  [A4A98B24]     Copy OKTrack  3     Filename E:\cdda\03 - Tho-So-Aa - Cryotesk.wav     Peak level 100.0 %     Track quality 100.0 %     Test CRC 32A18A62     Copy CRC 32A18A62     Accurately ripped (confidence 2)  [6D8DA1E7]     Copy OKTrack  4     Filename E:\cdda\04 - Lightwave - Proxima Thule.wav     Peak level 97.7 %     Track quality 100.0 %     Test CRC 092C5B42     Copy CRC 092C5B42     Accurately ripped (confidence 2)  [3BD3FB66]     Copy OKTrack  5     Filename E:\cdda\05 - Tuu - Silent Writing.wav     Peak level 90.2 %     Track quality 100.0 %     Test CRC 2CA4078D     Copy CRC 2CA4078D     Accurately ripped (confidence 2)  [A7FBB1A7]     Copy OKTrack  6     Filename E:\cdda\06 - Troum - Giascei.wav     Peak level 91.3 %     Track quality 100.0 %     Test CRC 9D7A96F0     Copy CRC 9D7A96F0     Accurately ripped (confidence 2)  [10F86DD5]     Copy OKTrack  7     Filename E:\cdda\07 - Aidan Baker - Beneath The Ice.wav     Peak level 94.4 %     Track quality 100.0 %     Test CRC EF6991B3     Copy CRC EF6991B3     Accurately ripped (confidence 2)  [DF026680]     Copy OKTrack  8     Filename E:\cdda\08 - Netherworld - Kryos.wav     Peak level 74.5 %     Track quality 100.0 %     Test CRC 2BC29375     Copy CRC 2BC29375     Accurately ripped (confidence 2)  [267D8311]     Copy OKTrack  9     Filename E:\cdda\09 - Oophoi - Cold Sun.wav     Peak level 64.7 %     Track quality 99.9 %     Test CRC 679EC98D     Copy CRC 679EC98D     Accurately ripped (confidence 2)  [E255DD45]     Copy OKAll tracks accurately rippedNo errors occurredEnd of status report

.cue

REM GENRE "Ambient, Dark Ambient, Drone"REM DATE 2006REM DISCID 76129B09REM COMMENT "ExactAudioCopy v0.99pb5"FILE "01 - Closing The Eternity - Pulse Of Iceilence.wav" WAVE  TRACK 01 AUDIO    TITLE "Pulse Of Iceilence"    PERFORMER "Closing The Eternity"    INDEX 01 00:00:00FILE "02 - Northaunt - Crocker Land.wav" WAVE  TRACK 02 AUDIO    TITLE "Crocker Land"    PERFORMER "Northaunt"    INDEX 01 00:00:00FILE "03 - Tho-So-Aa - Cryotesk.wav" WAVE  TRACK 03 AUDIO    TITLE "Cryotesk"    PERFORMER "Tho-So-Aa"    INDEX 01 00:00:00FILE "04 - Lightwave - Proxima Thule.wav" WAVE  TRACK 04 AUDIO    TITLE "Proxima Thule"    PERFORMER "Lightwave"    INDEX 01 00:00:00FILE "05 - Tuu - Silent Writing.wav" WAVE  TRACK 05 AUDIO    TITLE "Silent Writing"    PERFORMER "Tuu"    INDEX 01 00:00:00FILE "06 - Troum - Giascei.wav" WAVE  TRACK 06 AUDIO    TITLE "Giascei"    PERFORMER "Troum"    INDEX 01 00:00:00FILE "07 - Aidan Baker - Beneath The Ice.wav" WAVE  TRACK 07 AUDIO    TITLE "Beneath The Ice"    PERFORMER "Aidan Baker"    INDEX 01 00:00:00FILE "08 - Netherworld - Kryos.wav" WAVE  TRACK 08 AUDIO    TITLE "Kryos"    PERFORMER "Netherworld"    INDEX 01 00:00:00FILE "09 - Oophoi - Cold Sun.wav" WAVE  TRACK 09 AUDIO    TITLE "Cold Sun"    PERFORMER "Oophoi"    INDEX 01 00:00:00

[GM002] Netherworld ‎– Morketid (2007) (CD)

Продолжительность: 59:24
Трэклист:
01 - Netherworld - Dreaming Arctic Expanses (9:16)
02 - Netherworld - New Horizons (9:24)
03 - Netherworld - Morketid (12:33)
04 - Netherworld - Jokul (7:28)
05 - Netherworld - North Pole (7:58)
06 - Netherworld - Virgin Lands (12:47)

log

Exact Audio Copy V0.99 prebeta 3 from 28. July 2007Отчёт EAC об извлечении, выполненном 5. марта 2010, 21:33Netherworld / MorketidДисковод: Optiarc DVD RW AD-7203A   Adapter: 0  ID: 0Режим чтения                 : ДостоверностьИспользование точного потока : ДаОтключение кэша аудио        : ДаИспользование указателей C2  : НетКоррекция смещения при чтении                     : 48Способность читать области Lead-in и Lead-out     : НетЗаполнение пропущенных сэмплов тишиной            : ДаУдаление блоков с тишиной в начале и конце        : НетПри вычислениях CRC использовались нулевые сэмплы : ДаИнтерфейс                                         : Встроенный Win32-интерфейс для Win NT/2000Выходной формат          : Пользовательский кодировщикВыбранный битрейт        : 1024 kBit/sКачество                 : ВысокийДобавление ID3-тэга      : НетУтилита сжатия           : C:\Program Files\Exact Audio Copy\FLAC\FLAC.EXEДополнительные параметры : -6 -V -T "ARTIST=%a" -T "TITLE=%t" -T "ALBUM=%g" -T "DATE=%y" -T "TRACKNUMBER=%n" -T "GENRE=%m" -T "COMMENT=%e" %s -o %dTOC извлечённого CD     Трек |   Старт  | Длительность | Начальный сектор | Конечный сектор    ---------------------------------------------------------------------       1  |  0:00.00 |    9:15.51   |           0      |      41675       2  |  9:15.51 |    9:23.54   |       41676      |      83954       3  | 18:39.30 |   12:32.38   |       83955      |     140392       4  | 31:11.68 |    7:28.06   |      140393      |     173998       5  | 38:39.74 |    7:57.51   |      173999      |     209824       6  | 46:37.50 |   12:46.49   |      209825      |     267323Характеристики диапазона извлечения и сообщения об ошибкахВыбранный диапазон     Имя файла C:\Documents and Settings\junksky\Рабочий стол\Netherworld - Morketid.wav     Пиковый уровень 86.1 %     Качество диапазона 99.9 %     CRC теста 15B63BC8     CRC копии 15B63BC8     Копирование... OKОшибок не произошлоAccurateRip: сводкаТрек  1  точное извлечение (доверие 3)  [415EC74E]Трек  2  точное извлечение (доверие 3)  [6ECF2BE5]Трек  3  точное извлечение (доверие 3)  [245AD1D0]Трек  4  точное извлечение (доверие 3)  [032E9D75]Трек  5  точное извлечение (доверие 3)  [D7BE3194]Трек  6  точное извлечение (доверие 3)  [CA07054A]Все треки извлечены точноКонец отчёта

.cue

REM ACCURATERIPID 000dfeb4-004ab8eb-4e0dec06REM DATE 2007REM DISCID 4E0DEC06REM COMMENT "ExactAudioCopy v0.99pb3"PERFORMER "Netherworld"TITLE "Morketid"FILE "01 - Dreaming Arctic Expanses .flac" WAVE  TRACK 01 AUDIO    TITLE "Dreaming Arctic Expanses "    PERFORMER "Netherworld"    INDEX 01 00:00:00  TRACK 02 AUDIO    TITLE "New Horizons "    PERFORMER "Netherworld"    INDEX 00 09:15:45FILE "02 - New Horizons .flac" WAVE    INDEX 01 00:00:00  TRACK 03 AUDIO    TITLE "Morketid"    PERFORMER "Netherworld"    INDEX 00 09:23:53FILE "03 - Morketid.flac" WAVE    INDEX 01 00:00:00  TRACK 04 AUDIO    TITLE "Jokul"    PERFORMER "Netherworld"    INDEX 00 12:32:28FILE "04 - Jokul.flac" WAVE    INDEX 01 00:00:00  TRACK 05 AUDIO    TITLE "North Pole "    PERFORMER "Netherworld"    INDEX 00 07:28:05FILE "05 - North Pole .flac" WAVE    INDEX 01 00:00:00  TRACK 06 AUDIO    TITLE "Virgin Lands "    PERFORMER "Netherworld"    INDEX 00 07:57:49FILE "06 - Virgin Lands .flac" WAVE    INDEX 01 00:00:00

[GM003] Rapoon ‎– Time Frost (2007) (СD)

Продолжительность: 59:06
Трэклист:
01 - Rapoon - Glacial Danube (6:08)
02 - Rapoon - Thin Light (6:13)
03 - Rapoon - A Darkness Of Snow (6:51)
04 - Rapoon - Horizon Discrete (5:36)
05 - Rapoon - Ice Whispers (34:18)

log

Exact Audio Copy V1.0 beta 3 from 29. August 2011EAC extraction logfile from 18. November 2012, 0:49Rapoon / Time FrostUsed drive  : hp      DVD RW AD-7586H   Adapter: 0  ID: 1Read mode               : SecureUtilize accurate stream : YesDefeat audio cache      : YesMake use of C2 pointers : NoRead offset correction                      : 6Overread into Lead-In and Lead-Out          : NoFill up missing offset samples with silence : YesDelete leading and trailing silent blocks   : NoNull samples used in CRC calculations       : YesUsed interface                              : Native Win32 interface for Win NT & 2000Gap handling                                : Appended to previous trackUsed output format              : User Defined EncoderSelected bitrate                : 768 kBit/sQuality                         : HighAdd ID3 tag                     : NoCommand line compressor         : C:\Program Files (x86)\Exact Audio Copy\FLAC\FLAC.EXEAdditional command line options : -6 -V -T "ARTIST=%artist%" -T "TITLE=%title%" -T "ALBUM=%albumtitle%" -T "DATE=%year%" -T "TRACKNUMBER=%tracknr%" -T "GENRE=%genre%" -T "COMMENT=%comment%" -T "BAND=%albuminterpret%" -T "ALBUMARTIST=%albuminterpret%" -T "COMPOSER=%composer%" %haslyrics%--tag-from-file=LYRICS="%lyricsfile%"%haslyrics% -T "DISCNUMBER=%cdnumber%" -T "TOTALDISCS=%totalcds%" -T "TOTALTRACKS=%numtracks%" %hascover%--picture="%coverfile%"%hascover% %source% -o %dest%TOC of the extracted CD     Track |   Start  |  Length  | Start sector | End sector    ---------------------------------------------------------        1  |  0:00.00 |  6:07.62 |         0    |    27586        2  |  6:07.62 |  6:13.30 |     27587    |    55591        3  | 12:21.17 |  6:50.42 |     55592    |    86383        4  | 19:11.59 |  5:35.50 |     86384    |   111558        5  | 24:47.34 | 34:18.16 |    111559    |   265924Track  1     Filename C:\Users\Kris\Music\EAC Rips\Rapoon - Time Frost [CD-FLAC] - [GM003] 2007\01 - Glacial Danube.wav     Pre-gap length  0:00:02.00     Peak level 99.5 %     Extraction speed 2.6 X     Track quality 99.9 %     Test CRC 5F82D570     Copy CRC 5F82D570     Accurately ripped (confidence 4)  [AA5E36A3]  (AR v1)     Copy OKTrack  2     Filename C:\Users\Kris\Music\EAC Rips\Rapoon - Time Frost [CD-FLAC] - [GM003] 2007\02 - Thin Light.wav     Peak level 99.5 %     Extraction speed 3.4 X     Track quality 100.0 %     Test CRC 60F6311B     Copy CRC 60F6311B     Accurately ripped (confidence 4)  [3E1608AE]  (AR v1)     Copy OKTrack  3     Filename C:\Users\Kris\Music\EAC Rips\Rapoon - Time Frost [CD-FLAC] - [GM003] 2007\03 - A Darkness Of Snow.wav     Peak level 99.5 %     Extraction speed 3.8 X     Track quality 100.0 %     Test CRC 305936C8     Copy CRC 305936C8     Accurately ripped (confidence 4)  [DBCDD387]  (AR v1)     Copy OKTrack  4     Filename C:\Users\Kris\Music\EAC Rips\Rapoon - Time Frost [CD-FLAC] - [GM003] 2007\04 - Horizon Discrete.wav     Peak level 94.4 %     Extraction speed 3.5 X     Track quality 99.9 %     Test CRC 815EDA59     Copy CRC 815EDA59     Accurately ripped (confidence 4)  [14CFEA40]  (AR v1)     Copy OKTrack  5     Filename C:\Users\Kris\Music\EAC Rips\Rapoon - Time Frost [CD-FLAC] - [GM003] 2007\05 - Ice Whispers.wav     Peak level 99.5 %     Extraction speed 5.4 X     Track quality 100.0 %     Test CRC 60AC1332     Copy CRC 60AC1332     Accurately ripped (confidence 4)  [ADBF9317]  (AR v1)     Copy OKAll tracks accurately rippedNo errors occurredEnd of status report---- CUETools DB Plugin V2.1.3[CTDB TOCID: UEaEwyB6qveWw743qevELPniZ5k-] found, Submit result: UEaEwyB6qveWw743qevELPniZ5k- has been confirmed[1439d7ec] (4/4) Accurately ripped==== Log checksum 2AECA2D87392C303379DE3AE8FD730915AE87BB722F65E37F8FD4D58DE113662 ====

.cue

REM DATE 2007REM DISCID 420DD905REM COMMENT "ExactAudioCopy v1.0b3"PERFORMER "Rapoon"TITLE "Time Frost"FILE "01 - Glacial Danube.wav" WAVE  TRACK 01 AUDIO    TITLE "Glacial Danube"    PERFORMER "Rapoon"    INDEX 01 00:00:00FILE "02 - Thin Light.wav" WAVE  TRACK 02 AUDIO    TITLE "Thin Light"    PERFORMER "Rapoon"    INDEX 01 00:00:00FILE "03 - A Darkness Of Snow.wav" WAVE  TRACK 03 AUDIO    TITLE "A Darkness Of Snow"    PERFORMER "Rapoon"    INDEX 01 00:00:00FILE "04 - Horizon Discrete.wav" WAVE  TRACK 04 AUDIO    TITLE "Horizon Discrete"    PERFORMER "Rapoon"    INDEX 01 00:00:00FILE "05 - Ice Whispers.wav" WAVE  TRACK 05 AUDIO    TITLE "Ice Whispers"    PERFORMER "Rapoon"    INDEX 01 00:00:00

[GM004] Lull ‎– Like A Slow River (2008) (CD)

Продолжительность: 1:00:15
Трэклист:01 - Lull - Whiteout (14:33)
02 - Lull - The Sheet (14:39)
03 - Lull - Like A Slow River (14:04)
04 - Lull - Treeless Grounds (12:27)
05 - Lull - Illusion Of Unbroken Surface (4:32)

log

Exact Audio Copy V1.0 beta 1 from 15. November 2010EAC extraction logfile from 19. May 2011, 13:58Lull / like a slow riverUsed drive  : HL-DT-STDVDRAM GSA-H12L   Adapter: 4  ID: 0Read mode               : SecureUtilize accurate stream : YesDefeat audio cache      : YesMake use of C2 pointers : NoRead offset correction                      : 667Overread into Lead-In and Lead-Out          : NoFill up missing offset samples with silence : YesDelete leading and trailing silent blocks   : NoNull samples used in CRC calculations       : YesUsed interface                              : Native Win32 interface for Win NT & 2000Gap handling                                : Appended to previous trackUsed output format              : User Defined EncoderSelected bitrate                : 320 kBit/sQuality                         : HighAdd ID3 tag                     : NoCommand line compressor         : G:\Ohjelmat\Exact Audio Copy\Flac\flac.exeAdditional command line options : -V -8 -T "artist=%a" -T "title=%t" -T "album=%g" -T "date=%y" -T "tracknumber=%n" -T "genre=%m" %sTOC of the extracted CD     Track |   Start  |  Length  | Start sector | End sector    ---------------------------------------------------------        1  |  0:00.00 | 14:32.56 |         0    |    65455        2  | 14:32.56 | 14:39.27 |     65456    |   131407        3  | 29:12.08 | 14:04.09 |    131408    |   194716        4  | 43:16.17 | 12:27.35 |    194717    |   250776        5  | 55:43.52 |  4:31.45 |    250777    |   271146Track  1     Filename F:\RIP\Lull -2008- like a slow river [GM004]\01. whiteout.wav     Pre-gap length  0:00:02.00     Peak level 90.5 %     Extraction speed 3.6 X     Track quality 100.0 %     Test CRC ADF0F98A     Copy CRC ADF0F98A     Accurately ripped (confidence 4)  [B8A2E450]     Copy OKTrack  2     Filename F:\RIP\Lull -2008- like a slow river [GM004]\02. the sheet.wav     Pre-gap length  0:00:02.00     Peak level 99.9 %     Extraction speed 4.6 X     Track quality 100.0 %     Test CRC 58F07091     Copy CRC 58F07091     Accurately ripped (confidence 4)  [980494AB]     Copy OKTrack  3     Filename F:\RIP\Lull -2008- like a slow river [GM004]\03. like a slow river.wav     Pre-gap length  0:00:02.00     Peak level 94.6 %     Extraction speed 5.0 X     Track quality 99.9 %     Test CRC 03D8CC11     Copy CRC 03D8CC11     Accurately ripped (confidence 4)  [43130C2E]     Copy OKTrack  4     Filename F:\RIP\Lull -2008- like a slow river [GM004]\04. treeless grounds.wav     Pre-gap length  0:00:02.00     Peak level 94.5 %     Extraction speed 5.5 X     Track quality 99.9 %     Test CRC 2586CE75     Copy CRC 2586CE75     Accurately ripped (confidence 4)  [E53F9900]     Copy OKTrack  5     Filename F:\RIP\Lull -2008- like a slow river [GM004]\05. illusion of unbroken surface.wav     Pre-gap length  0:00:02.00     Peak level 99.9 %     Extraction speed 6.0 X     Track quality 100.0 %     Test CRC 947F9921     Copy CRC 947F9921     Accurately ripped (confidence 4)  [1BB33BE3]     Copy OKAll tracks accurately rippedNo errors occurredEnd of status report==== Log checksum 0A02EF245675C47EC159F7A26F4AE7699D3F37831787B3908D52DCDD908B4EAC ====

.cue

REM GENRE Dark AmbientREM DATE 2008REM DISCID 4D0E1F05REM COMMENT "ExactAudioCopy v1.0b1"PERFORMER "Lull"TITLE "Like A Slow River"FILE "01 - Whiteout.wav" WAVE  TRACK 01 AUDIO    TITLE "Whiteout"    PERFORMER "Lull"    INDEX 01 00:00:00  TRACK 02 AUDIO    TITLE "The Sheet"    PERFORMER "Lull"    INDEX 00 14:30:56FILE "02 - The Sheet.wav" WAVE    INDEX 01 00:00:00  TRACK 03 AUDIO    TITLE "Like A Slow River"    PERFORMER "Lull"    INDEX 00 14:37:27FILE "03 - Like A Slow River.wav" WAVE    INDEX 01 00:00:00  TRACK 04 AUDIO    TITLE "Treeless Grounds"    PERFORMER "Lull"    INDEX 00 14:02:09FILE "04 - Treeless Grounds.wav" WAVE    INDEX 01 00:00:00  TRACK 05 AUDIO    TITLE "Illusion Of Unbroken Surface"    PERFORMER "Lull"    INDEX 00 12:25:35FILE "05 - Illusion Of Unbroken Surface.wav" WAVE    INDEX 01 00:00:00

[GM005] Skare ‎– Solstice City (2009) (CD)

Продолжительность: 50:34
Трэклист:
01 - Skare - To The Other Shore (3:14)
02 - Skare - Through Wind Broken Ice (20:45)
03 - Skare - The Snow Angel Factory (26:35)

log

Exact Audio Copy V0.99 prebeta 3 from 28. July 2007Отчёт EAC об извлечении, выполненном 2. марта 2010, 20:03Skare / Solstice CityДисковод: Optiarc DVD RW AD-7203A   Adapter: 0  ID: 0Режим чтения                 : ДостоверностьИспользование точного потока : ДаОтключение кэша аудио        : ДаИспользование указателей C2  : НетКоррекция смещения при чтении                     : 48Способность читать области Lead-in и Lead-out     : НетЗаполнение пропущенных сэмплов тишиной            : ДаУдаление блоков с тишиной в начале и конце        : НетПри вычислениях CRC использовались нулевые сэмплы : ДаИнтерфейс                                         : Встроенный Win32-интерфейс для Win NT/2000Выходной формат          : Пользовательский кодировщикВыбранный битрейт        : 1024 kBit/sКачество                 : ВысокийДобавление ID3-тэга      : НетУтилита сжатия           : C:\Program Files\Exact Audio Copy\FLAC\FLAC.EXEДополнительные параметры : -6 -V -T "ARTIST=%a" -T "TITLE=%t" -T "ALBUM=%g" -T "DATE=%y" -T "TRACKNUMBER=%n" -T "GENRE=%m" -T "COMMENT=%e" %s -o %dTOC извлечённого CD     Трек |   Старт  | Длительность | Начальный сектор | Конечный сектор    ---------------------------------------------------------------------       1  |  0:00.00 |    3:13.62   |           0      |      14536       2  |  3:13.62 |   20:45.18   |       14537      |     107929       3  | 23:59.05 |   26:34.52   |      107930      |     227531Характеристики диапазона извлечения и сообщения об ошибкахВыбранный диапазон     Имя файла C:\Documents and Settings\junksky\Рабочий стол\Skare - Solstice City.wav     Пиковый уровень 86.9 %     Качество диапазона 99.9 %     CRC теста 0F079C12     CRC копии 0F079C12     Копирование... OKОшибок не произошлоКонец отчёта

.cue

REM DATE 2009REM DISCID 1B0BD903REM COMMENT "ExactAudioCopy v0.99pb3"PERFORMER "Skare"TITLE "Solstice City"FILE "01 - Solstice City.flac" WAVE  TRACK 01 AUDIO    TITLE "To The Other Shore "    PERFORMER "Skare"    INDEX 01 00:00:00  TRACK 02 AUDIO    TITLE "Through Wind Broken Ice "    PERFORMER "Skare"    INDEX 00 03:11:58    INDEX 01 03:13:62  TRACK 03 AUDIO    TITLE "The Snow Angel Factory "    PERFORMER "Skare"    INDEX 00 23:57:01    INDEX 01 23:59:05

[GM006] Aqua Dorsa ‎– Cloudlands (2009) (CD)

Продолжительность: 1:07:27
Трэклист:
01 - Aqua Dorsa - A Pillow Of Clouds (5:22)
02 - Aqua Dorsa - Daylight Fading Into Evening Silence (5:05)
03 - Aqua Dorsa - The Pond Reflected Her Smile (9:13)
04 - Aqua Dorsa - Zero Gravity (10:59)
05 - Aqua Dorsa - Syhan (12:11)
06 - Aqua Dorsa - Alone In The Rising Fog (18:31)
07 - Aqua Dorsa - Night Of Trembling Stars (6:05)

log

Exact Audio Copy V1.1 from 23. June 2015EAC extraction logfile from 9. April 2016, 18:56Aqua Dorsa / CloudlandsUsed Drive  : TS8XDVDSTRANSCEND   Adapter: 1  ID: 0 (not found in database)Read mode               : SecureUtilize accurate stream : YesDefeat audio cache      : YesMake use of C2 pointers : NoRead offset correction                      : 6Overread into Lead-In and Lead-Out          : NoFill up missing offset samples with silence : YesDelete leading and trailing silent blocks : NoNull samples used in CRC calculations       : YesUsed interface                              : Native Win32 interface for Win NT & 2000Gap handling                                : Appended to previous trackUsed output format              : User Defined EncoderSelected bitrate                : 1024 kBit/sQuality                         : HighAdd ID3 tag                     : NoCommand line compressor         : C:\Program Files (x86)\FLAC\flac.exeAdditional command line options : -8 -V -T "ARTIST=%artist%" -T "TITLE=%title%" -T "ALBUM=%albumtitle%" -T"DATE=%year%" -T "TRACKNUMBER=%tracknr%" -T "GENRE=%genre%" -T "PERFORMER=%albuminterpret%" -T "COMPOSER=%composer%" %haslyrics%--tag-from-file=LYRICS="%lyricsfile%"%haslyrics% -T "ALBUMARTIST=%albumartist%" -T "DISCNUMBER=%cdnumber%" -T "TOTALDISCS=%totalcds%" -T "TOTALTRACKS=%numtracks%" -T "COMMENT=%comment%" %source% -o %dest%TOC of the extracted CD     Track |   Start  |  Length  | Start sector | End sector    ---------------------------------------------------------        1  |  0:00.00 |  5:21.60 |         0    |    24134        2  |  5:21.60 |  5:04.57 |     24135    |    46991        3  | 10:26.42 |  9:12.69 |     46992    |    88460        4  | 19:39.36 | 10:59.12 |     88461    |   137897        5  | 30:38.48 | 12:11.32 |    137898    |   192754        6  | 42:50.05 | 18:31.06 |    192755    |   276085        7  | 61:21.11 |  6:05.30 |    276086    |   303490Track  1     Filename C:\_EAC\01 - A Pillow Of Clouds.wav     Pre-gap length  0:00:02.00     Peak level 69.5 %     Extraction speed 2.7 X     Track quality 100.0 %     Test CRC 40DE16C1     Copy CRC 40DE16C1     Accurately ripped (confidence 5)  [6956138D]  (AR v2)     Copy OKTrack  2     Filename C:\_EAC\02 - Daylight Fading Into Evening Silence.wav     Peak level 100.0 %     Extraction speed 2.6 X     Track quality 99.9 %     Test CRC 9EB75C0D     Copy CRC 9EB75C0D     Accurately ripped (confidence 5)  [95A908E0]  (AR v2)     Copy OKTrack  3     Filename C:\_EAC\03 - The Pond Reflected Her Smile.wav     Peak level 92.9 %     Extraction speed 3.6 X     Track quality 100.0 %     Test CRC 8508A8DD     Copy CRC 8508A8DD     Accurately ripped (confidence 5)  [B8DECB39]  (AR v2)     Copy OKTrack  4     Filename C:\_EAC\04 - Zero Gravity.wav     Peak level 69.2 %     Extraction speed 4.1 X     Track quality 100.0 %     Test CRC 23FC09A3     Copy CRC 23FC09A3     Accurately ripped (confidence 5)  [922EA5FB]  (AR v2)     Copy OKTrack  5     Filename C:\_EAC\05 - Syhan.wav     Peak level 98.8 %     Extraction speed 4.7 X     Track quality 100.0 %     Test CRC 1BCB4066     Copy CRC 1BCB4066     Accurately ripped (confidence 5)  [2E98908D]  (AR v2)     Copy OKTrack  6     Filename C:\_EAC\06 - Alone In The Rising Fog.wav     Peak level 93.2 %     Extraction speed 5.3 X     Track quality 100.0 %     Test CRC 088C186D     Copy CRC 088C186D     Accurately ripped (confidence 5)  [524EAD87]  (AR v2)     Copy OKTrack  7     Filename C:\_EAC\07 - Night Of Trembling Stars.wav     Peak level 82.5 %     Extraction speed 5.3 X     Track quality 100.0 %     Test CRC B77E7C11     Copy CRC B77E7C11     Accurately ripped (confidence 5)  [2FC094E5]  (AR v2)     Copy OKAll tracks accurately rippedNo errors occurredEnd of status report---- CUETools DB Plugin V2.1.6[CTDB TOCID: oizgLafyEhkYhlkmgr8GekF7ki8-] foundSubmit result: unrecognized or virtual driveTrack | CTDB Status  1   | (4/4) Accurately ripped  2   | (4/4) Accurately ripped  3   | (4/4) Accurately ripped  4   | (4/4) Accurately ripped  5   | (4/4) Accurately ripped  6   | (4/4) Accurately ripped  7   | (4/4) Accurately ripped==== Log checksum 53FF547E57D8A9F3111593598ED192EEDE289A9E12D424C910665652D1D0DEA9 ====

.cue

REM GENRE AmbientREM DATE 2009REM DISCID 560FCE07REM COMMENT "ExactAudioCopy v1.1"PERFORMER "Aqua Dorsa"TITLE "Cloudlands"FILE "01 - A Pillow Of Clouds.wav" WAVE  TRACK 01 AUDIO    TITLE "A Pillow Of Clouds"    PERFORMER "Aqua Dorsa"    INDEX 01 00:00:00FILE "02 - Daylight Fading Into Evening Silence.wav" WAVE  TRACK 02 AUDIO    TITLE "Daylight Fading Into Evening Silence"    PERFORMER "Aqua Dorsa"    INDEX 01 00:00:00FILE "03 - The Pond Reflected Her Smile.wav" WAVE  TRACK 03 AUDIO    TITLE "The Pond Reflected Her Smile"    PERFORMER "Aqua Dorsa"    INDEX 01 00:00:00FILE "04 - Zero Gravity.wav" WAVE  TRACK 04 AUDIO    TITLE "Zero Gravity"    PERFORMER "Aqua Dorsa"    INDEX 01 00:00:00FILE "05 - Syhan.wav" WAVE  TRACK 05 AUDIO    TITLE "Syhan"    PERFORMER "Aqua Dorsa"    INDEX 01 00:00:00FILE "06 - Alone In The Rising Fog.wav" WAVE  TRACK 06 AUDIO    TITLE "Alone In The Rising Fog"    PERFORMER "Aqua Dorsa"    INDEX 01 00:00:00FILE "07 - Night Of Trembling Stars.wav" WAVE  TRACK 07 AUDIO    TITLE "Night Of Trembling Stars"    PERFORMER "Aqua Dorsa"    INDEX 01 00:00:00

[GM007] Francisco López ‎– Amarok (2010) (CD)

Продолжительность: 1:04:08
Трэклист:01 - Francisco López - Amarok (1:04:08)

log

Exact Audio Copy V0.99 prebeta 5 from 4. May 2009EAC extraction logfile from 16. August 2010, 17:13Francisco Lуpez / AmarokUsed drive  : Optiarc DVD RW AD-7240S   Adapter: 0  ID: 1Read mode               : SecureUtilize accurate stream : YesDefeat audio cache      : YesMake use of C2 pointers : NoRead offset correction                      : 48Overread into Lead-In and Lead-Out          : NoFill up missing offset samples with silence : YesDelete leading and trailing silent blocks   : NoNull samples used in CRC calculations       : YesUsed interface                              : Native Win32 interface for Win NT & 2000Gap handling                                : Appended to previous trackUsed output format              : User Defined EncoderSelected bitrate                : 128 kBit/sQuality                         : HighAdd ID3 tag                     : NoCommand line compressor         : C:\Program Files\FLAC\flac.exeAdditional command line options : -V -8 -T "artist=%a" -T "title=%t" -T "album=%g" -T "date=%y" -T "tracknumber=%n" -T "genre=%m" %sTOC of the extracted CD     Track |   Start  |  Length  | Start sector | End sector    ---------------------------------------------------------        1  |  0:00.00 | 64:07.61 |         0    |   288585Track  1     Filename D:\Music\FLAC\Francisco Lуpez\Amarok\01 - Amarok.wav     Pre-gap length  0:00:02.00     Peak level 100.0 %     Track quality 100.0 %     Test CRC ACE20C3A     Copy CRC ACE20C3A     Accurately ripped (confidence 1)  [9B636E61]     Copy OKAll tracks accurately rippedNo errors occurredEnd of status report

.cue

REM GENRE ExperimentalREM DATE 2010REM DISCID 020F0701REM COMMENT "ExactAudioCopy v0.99pb5"PERFORMER "Francisco Lуpez"TITLE "Amarok"FILE "01 - Amarok.wav" WAVE  TRACK 01 AUDIO    TITLE "Amarok"    PERFORMER "Francisco Lуpez"    INDEX 01 00:00:00

[GM008] bvdub ‎– The Art Of Dying Alone (2010) (CD)

Продолжительность: 1:18:08
Трэклист:01 - bvdub - Descent To The End (8:09)
02 - bvdub - Nothing From No One (8:48)
03 - bvdub - To Finally Forget It All (21:20)
04 - bvdub - No More Reasons Not To Fall (11:20)
05 - bvdub - No One Will Ever Find You Here (9:19)
06 - bvdub - The Art Of Dying Alone (19:13)

log

Exact Audio Copy V0.99 prebeta 4 from 23. January 2008EAC extraction logfile from 13. October 2010, 18:51BvDub / The Art Of Dying AloneUsed drive  : ATAPI   iHAS124   Y   Adapter: 3  ID: 0Read mode               : SecureUtilize accurate stream : YesDefeat audio cache      : YesMake use of C2 pointers : NoRead offset correction                      : 48Overread into Lead-In and Lead-Out          : NoFill up missing offset samples with silence : YesDelete leading and trailing silent blocks   : NoNull samples used in CRC calculations       : YesUsed interface                              : Native Win32 interface for Win NT & 2000Gap handling                                : Appended to previous trackUsed output format              : User Defined EncoderSelected bitrate                : 128 kBit/sQuality                         : HighAdd ID3 tag                     : NoCommand line compressor         : C:\Program Files\Exact Audio Copy\Flac\flac.exeAdditional command line options : -8 -V -T "ARTIST=%a" -T "TITLE=%t" -T "ALBUM=%g" -T "DATE=%y" -T "TRACKNUMBER=%n" -T "TOTALTRACKS=%x" -T "GENRE=%m" -T "ALBUM ARTIST=%v" -T "ALBUMARTIST=%v" -T "COMMENT=EAC V0.99 prebeta 4, Secure Mode, Test & Copy, AccuratTOC of the extracted CD     Track |   Start  |  Length  | Start sector | End sector    ---------------------------------------------------------        1  |  0:00.00 |  8:08.54 |         0    |    36653        2  |  8:08.54 |  8:48.00 |     36654    |    76253        3  | 16:56.54 | 21:20.00 |     76254    |   172253        4  | 38:16.54 | 11:19.47 |    172254    |   223225        5  | 49:36.26 |  9:18.40 |    223226    |   265115        6  | 58:54.66 | 19:13.06 |    265116    |   351596Track  1     Filename H:\Torrents\BvDub - The Art Of Dying Alone (2010) [FLAC]\BvDub - The Art Of Dying Alone\01. BvDub - Descent To The End.wav     Pre-gap length  0:00:02.00     Peak level 80.2 %     Track quality 100.0 %     Test CRC 8EB8D57D     Copy CRC 8EB8D57D     Accurately ripped (confidence 1)  [F93042E6]     Copy OKTrack  2     Filename H:\Torrents\BvDub - The Art Of Dying Alone (2010) [FLAC]\BvDub - The Art Of Dying Alone\02. BvDub - Nothing From No One.wav     Peak level 81.6 %     Track quality 99.9 %     Test CRC 7F0CD4C6     Copy CRC 7F0CD4C6     Accurately ripped (confidence 1)  [7B56264E]     Copy OKTrack  3     Filename H:\Torrents\BvDub - The Art Of Dying Alone (2010) [FLAC]\BvDub - The Art Of Dying Alone\03. BvDub - To Finally Forget It All.wav     Peak level 72.5 %     Track quality 99.9 %     Test CRC 7E7113F4     Copy CRC 7E7113F4     Accurately ripped (confidence 1)  [98F6C0D0]     Copy OKTrack  4     Filename H:\Torrents\BvDub - The Art Of Dying Alone (2010) [FLAC]\BvDub - The Art Of Dying Alone\04. BvDub - No More Reasons Not To Fall.wav     Peak level 66.1 %     Track quality 100.0 %     Test CRC 04B1A07A     Copy CRC 04B1A07A     Accurately ripped (confidence 1)  [BD3AF4C5]     Copy OKTrack  5     Filename H:\Torrents\BvDub - The Art Of Dying Alone (2010) [FLAC]\BvDub - The Art Of Dying Alone\05. BvDub - No One Will Ever Find You Here.wav     Peak level 70.8 %     Track quality 99.9 %     Test CRC DEA6E48B     Copy CRC DEA6E48B     Accurately ripped (confidence 1)  [634E3A85]     Copy OKTrack  6     Filename H:\Torrents\BvDub - The Art Of Dying Alone (2010) [FLAC]\BvDub - The Art Of Dying Alone\06. BvDub - The Art Of Dying Alone.wav     Peak level 81.8 %     Track quality 100.0 %     Test CRC 520F5F2C     Copy CRC 520F5F2C     Cannot be verified as accurate (confidence 1)  [537BD430], AccurateRip returned [8075209D]     Copy OK 5 track(s) accurately ripped 1 track(s) could not be verified as accurateSome tracks could not be verified as accurateNo errors occurredEnd of status report

.cue

REM GENRE AmbientREM DATE 2010REM DISCID 59124F06REM COMMENT "ExactAudioCopy v0.99pb4"PERFORMER "BvDub"TITLE "The Art Of Dying Alone"FILE "01 - Descent To The End.flac" WAVE  TRACK 01 AUDIO    TITLE "Descent To The End"    PERFORMER "BvDub"    INDEX 01 00:00:00FILE "02 - Nothing From No One.flac" WAVE  TRACK 02 AUDIO    TITLE "Nothing From No One"    PERFORMER "BvDub"    INDEX 01 00:00:00FILE "03 - To Finally Forget It All.flac" WAVE  TRACK 03 AUDIO    TITLE "To Finally Forget It All"    PERFORMER "BvDub"    INDEX 01 00:00:00FILE "04 - No More Reasons Not To Fall.flac" WAVE  TRACK 04 AUDIO    TITLE "No More Reasons Not To Fall"    PERFORMER "BvDub"    INDEX 01 00:00:00FILE "05 - No One Will Ever Find You Here.flac" WAVE  TRACK 05 AUDIO    TITLE "No One Will Ever Find You Here"    PERFORMER "BvDub"    INDEX 01 00:00:00FILE "06 - The Art Of Dying Alone.flac" WAVE  TRACK 06 AUDIO    TITLE "The Art Of Dying Alone"    PERFORMER "BvDub"    INDEX 01 00:00:00

[GM009] Netherworld ‎– Over The Summit (2011) (CD)

Продолжительность: 57:19
Трэклист:01 - Netherworld - Over the Summit (9:03)
02 - Netherworld - Aurora Performs Its Last Show (9:25)
03 - Netherworld - Iceblink (Aurora Borealis Mix) (13:09)
04 - Netherworld - Crystallized Words (5:45)
05 - Netherworld - Thoughts Locked In The Ice (11:20)
06 - Netherworld - Iperborea (8:36)

log

Exact Audio Copy V0.99 prebeta 5 from 4. May 2009EAC extraction logfile from 4. June 2011, 12:55Netherworld / Over the SummitUsed drive  : Optiarc DVD RW AD-7170A   Adapter: 1  ID: 0Read mode               : SecureUtilize accurate stream : YesDefeat audio cache      : YesMake use of C2 pointers : NoRead offset correction                      : 48Overread into Lead-In and Lead-Out          : NoFill up missing offset samples with silence : YesDelete leading and trailing silent blocks   : NoNull samples used in CRC calculations       : YesUsed interface                              : Native Win32 interface for Win NT & 2000Gap handling                                : Appended to previous trackUsed output format              : User Defined EncoderSelected bitrate                : 128 kBit/sQuality                         : HighAdd ID3 tag                     : NoCommand line compressor         : C:\Program Files\Exact Audio Copy\Flac\flac.exeAdditional command line options : -8 -V %sTOC of the extracted CD     Track |   Start  |  Length  | Start sector | End sector    ---------------------------------------------------------        1  |  0:00.00 |  9:02.69 |         0    |    40718        2  |  9:02.69 |  9:25.06 |     40719    |    83099        3  | 18:28.00 | 13:09.20 |     83100    |   142294        4  | 31:37.20 |  5:45.17 |    142295    |   168186        5  | 37:22.37 | 11:19.57 |    168187    |   219168        6  | 48:42.19 |  8:36.34 |    219169    |   257902Track  1     Filename E:\CD\Netherworld [2011] Over The Summit\01. Netherworld – Over The Summit.wav     Pre-gap length  0:00:02.00     Peak level 100.0 %     Track quality 99.9 %     Test CRC C1493082     Copy CRC C1493082     Accurately ripped (confidence 1)  [87E6437A]     Copy OKTrack  2     Filename E:\CD\Netherworld [2011] Over The Summit\02. Netherworld – Aurora Peforms Its Last Show.wav     Pre-gap length  0:00:02.00     Peak level 100.0 %     Track quality 100.0 %     Test CRC 2E980754     Copy CRC 2E980754     Accurately ripped (confidence 1)  [7E4BB6CC]     Copy OKTrack  3     Filename E:\CD\Netherworld [2011] Over The Summit\03. Netherworld – Iceblink (Aurora Borealis Mix).wav     Pre-gap length  0:00:02.00     Peak level 72.1 %     Track quality 100.0 %     Test CRC EBBCDC65     Copy CRC EBBCDC65     Accurately ripped (confidence 1)  [DB654386]     Copy OKTrack  4     Filename E:\CD\Netherworld [2011] Over The Summit\04. Netherworld – Crystallized Words.wav     Pre-gap length  0:00:02.00     Peak level 100.0 %     Track quality 100.0 %     Test CRC 939E39BC     Copy CRC 939E39BC     Accurately ripped (confidence 1)  [01CD84EF]     Copy OKTrack  5     Filename E:\CD\Netherworld [2011] Over The Summit\05. Netherworld – Thoughts Locked In The Ice.wav     Pre-gap length  0:00:02.00     Peak level 100.0 %     Track quality 100.0 %     Test CRC 7F234616     Copy CRC 7F234616     Accurately ripped (confidence 1)  [89F73369]     Copy OKTrack  6     Filename E:\CD\Netherworld [2011] Over The Summit\06. Netherworld – Iperborea.wav     Pre-gap length  0:00:02.00     Peak level 72.4 %     Track quality 100.0 %     Test CRC 64D6C937     Copy CRC 64D6C937     Accurately ripped (confidence 1)  [C13BAFE9]     Copy OKAll tracks accurately rippedNo errors occurredEnd of status report

.cue

REM GENRE "Dark Ambient, Drone"REM DATE 2011REM DISCID 4A0D6E06REM COMMENT "ExactAudioCopy v0.99pb5"PERFORMER "Netherworld"TITLE "Over The Summit"FILE "01 – Over The Summit.wav" WAVE  TRACK 01 AUDIO    TITLE "Over The Summit"    PERFORMER "Netherworld"    ISRC 000000000000    INDEX 01 00:00:00  TRACK 02 AUDIO    TITLE "Aurora Peforms Its Last Show"    PERFORMER "Netherworld"    ISRC 000000000000    INDEX 00 09:00:69FILE "02 – Aurora Performs Its Last Show.wav" WAVE    INDEX 01 00:00:00  TRACK 03 AUDIO    TITLE "Iceblink (Aurora Borealis Mix)"    PERFORMER "Netherworld"    ISRC 000000000000    INDEX 00 09:23:06FILE "03 – Iceblink (Aurora Borealis Mix).wav" WAVE    INDEX 01 00:00:00  TRACK 04 AUDIO    TITLE "Crystallized Words"    PERFORMER "Netherworld"    ISRC 000000000000    INDEX 00 13:07:20FILE "04 – Crystallized Words.wav" WAVE    INDEX 01 00:00:00  TRACK 05 AUDIO    TITLE "Thoughts Locked In The Ice"    PERFORMER "Netherworld"    ISRC 000000000000    INDEX 00 05:43:17FILE "05 – Thoughts Locked In The Ice.wav" WAVE    INDEX 01 00:00:00  TRACK 06 AUDIO    TITLE "Iperborea"    PERFORMER "Netherworld"    ISRC 000000000000    INDEX 00 11:17:57FILE "06 – Iperborea.wav" WAVE    INDEX 01 00:00:00

[GM010] Loscil ‎– Coast/ Range/ Arc (2011) (CD)

Продолжительность: 54:26
Трэклист:01 - Loscil - Black Tusk (10:04)
02 - Loscil - Fromme (7:36)
03 - Loscil - Stave Peak (6:41)
04 - Loscil - Névé (8:08)
05 - Loscil - Brohm Ridge (11:27)
06 - Loscil - Goat Mountain (10:31)

log

Exact Audio Copy V1.0 beta 1 from 15. November 2010EAC extraction logfile from 19. May 2011, 12:59loscil / coast/range/arcUsed drive  : HL-DT-STDVDRAM GSA-H12L   Adapter: 4  ID: 0Read mode               : SecureUtilize accurate stream : YesDefeat audio cache      : YesMake use of C2 pointers : NoRead offset correction                      : 667Overread into Lead-In and Lead-Out          : NoFill up missing offset samples with silence : YesDelete leading and trailing silent blocks   : NoNull samples used in CRC calculations       : YesUsed interface                              : Native Win32 interface for Win NT & 2000Gap handling                                : Appended to previous trackUsed output format              : User Defined EncoderSelected bitrate                : 320 kBit/sQuality                         : HighAdd ID3 tag                     : NoCommand line compressor         : G:\Ohjelmat\Exact Audio Copy\Flac\flac.exeAdditional command line options : -V -8 -T "artist=%a" -T "title=%t" -T "album=%g" -T "date=%y" -T "tracknumber=%n" -T "genre=%m" %sTOC of the extracted CD     Track |   Start  |  Length  | Start sector | End sector    ---------------------------------------------------------        1  |  0:00.00 | 10:04.32 |         0    |    45331        2  | 10:04.32 |  7:35.44 |     45332    |    79500        3  | 17:40.01 |  6:40.46 |     79501    |   109546        4  | 24:20.47 |  8:07.47 |    109547    |   146118        5  | 32:28.19 | 11:26.51 |    146119    |   197619        6  | 43:54.70 | 10:31.18 |    197620    |   244962Track  1     Filename F:\RIP\loscil -2011- coast-range-arc [GM010]\01. black tusk.wav     Pre-gap length  0:00:02.00     Peak level 91.6 %     Extraction speed 3.4 X     Track quality 100.0 %     Test CRC 0F5695E8     Copy CRC 0F5695E8     Track not present in AccurateRip database     Copy OKTrack  2     Filename F:\RIP\loscil -2011- coast-range-arc [GM010]\02. fromme.wav     Pre-gap length  0:00:02.00     Peak level 97.7 %     Extraction speed 3.4 X     Track quality 99.9 %     Test CRC 198C1732     Copy CRC 198C1732     Track not present in AccurateRip database     Copy OKTrack  3     Filename F:\RIP\loscil -2011- coast-range-arc [GM010]\03. stave peak.wav     Pre-gap length  0:00:02.00     Peak level 78.2 %     Extraction speed 4.3 X     Track quality 100.0 %     Test CRC 0A35B9E1     Copy CRC 0A35B9E1     Track not present in AccurateRip database     Copy OKTrack  4     Filename F:\RIP\loscil -2011- coast-range-arc [GM010]\04. névé.wav     Pre-gap length  0:00:02.00     Peak level 97.7 %     Extraction speed 4.8 X     Track quality 100.0 %     Test CRC 1392E541     Copy CRC 1392E541     Track not present in AccurateRip database     Copy OKTrack  5     Filename F:\RIP\loscil -2011- coast-range-arc [GM010]\05. brohm ridge.wav     Pre-gap length  0:00:02.00     Peak level 97.7 %     Extraction speed 4.9 X     Track quality 99.9 %     Test CRC 54FB500A     Copy CRC 54FB500A     Track not present in AccurateRip database     Copy OKTrack  6     Filename F:\RIP\loscil -2011- coast-range-arc [GM010]\06. goat mountain.wav     Pre-gap length  0:00:02.00     Peak level 97.7 %     Extraction speed 5.9 X     Track quality 100.0 %     Test CRC 0E252362     Copy CRC 0E252362     Track not present in AccurateRip database     Copy OKNone of the tracks are present in the AccurateRip databaseNo errors occurredEnd of status report==== Log checksum AC9BEF7C22B5FD059C66ED50A1D04559E32523972B72AC59A0B115C27F1B48C1 ====

.cue

REM GENRE AmbientREM DATE 2011REM DISCID 440CC206REM COMMENT "ExactAudioCopy v1.0b1"PERFORMER "Loscil"TITLE "Coast/ Range/ Arc"FILE "01 - Black Tusk.wav" WAVE  TRACK 01 AUDIO    TITLE "Black Tusk"    PERFORMER "Loscil"    INDEX 01 00:00:00  TRACK 02 AUDIO    TITLE "Fromme"    PERFORMER "Loscil"    INDEX 00 10:02:32FILE "02 - Fromme.wav" WAVE    INDEX 01 00:00:00  TRACK 03 AUDIO    TITLE "Stave Peak"    PERFORMER "Loscil"    INDEX 00 07:33:44FILE "03 - Stave Peak.wav" WAVE    INDEX 01 00:00:00  TRACK 04 AUDIO    TITLE "N?v?"    PERFORMER "Loscil"    INDEX 00 06:38:46FILE "04 - N?v?.wav" WAVE    INDEX 01 00:00:00  TRACK 05 AUDIO    TITLE "Brohm Ridge"    PERFORMER "Loscil"    INDEX 00 08:05:47FILE "05 - Brohm Ridge.wav" WAVE    INDEX 01 00:00:00  TRACK 06 AUDIO    TITLE "Goat Mountain"    PERFORMER "Loscil"    INDEX 00 11:24:51FILE "06 - Goat Mountain.wav" WAVE    INDEX 01 00:00:00

[GM0011] Bvdub ‎– I Remember (Translations Of Morketid) (2011) (CD)

Продолжительность: 1:18:51
Трэклист:01 - bvdub - This Place Has Only Known Sadness (16:10)
02 - bvdub - We Said Forever (14:42)
03 - bvdub - The Promise (reprise) Feat. David Williams (14:42)
04 - bvdub - Would It Be The Same (13:30)
05 - bvdub - There Was Nothing But Beauty In My Heart (13:22)
06 - bvdub - A Taste of Your Own Medicine (6:25)

log

Exact Audio Copy V1.0 beta 2 from 29. April 2011EAC extraction logfile from 2. September 2011, 19:45bvdub / I Remember (translations of 'Morketid')Used drive  : HP      DVD Writer 555r   Adapter: 1  ID: 0Read mode               : SecureUtilize accurate stream : YesDefeat audio cache      : YesMake use of C2 pointers : NoRead offset correction                      : 6Overread into Lead-In and Lead-Out          : NoFill up missing offset samples with silence : YesDelete leading and trailing silent blocks   : NoNull samples used in CRC calculations       : YesUsed interface                              : Native Win32 interface for Win NT & 2000Gap handling                                : Appended to previous trackUsed output format              : User Defined EncoderSelected bitrate                : 768 kBit/sQuality                         : HighAdd ID3 tag                     : NoCommand line compressor         : C:\Program Files (x86)\Exact Audio Copy\FLAC\FLAC.EXEAdditional command line options : -6 -V -T "ARTIST=%artist%" -T "TITLE=%title%" -T "ALBUM=%albumtitle%" -T "DATE=%year%" -T "TRACKNUMBER=%tracknr%" -T "GENRE=%genre%" -T "COMMENT=%comment%" -T "BAND=%albuminterpret%" -T "COMPOSER=%composer%" %haslyrics%--taTOC of the extracted CD     Track |   Start  |  Length  | Start sector | End sector    ---------------------------------------------------------        1  |  0:00.00 | 16:10.00 |         0    |    72749        2  | 16:10.00 | 14:42.00 |     72750    |   138899        3  | 30:52.00 | 14:42.00 |    138900    |   205049        4  | 45:34.00 | 13:30.00 |    205050    |   265799        5  | 59:04.00 | 13:22.00 |    265800    |   325949        6  | 72:26.00 |  6:24.42 |    325950    |   354791Track  1     Filename C:\My Music\bvdub - I Remember (translations of Morketid FLAC\01 This Place Has Only Known Sadness.wav     Pre-gap length  0:00:02.00     Peak level 96.5 %     Extraction speed 1.5 X     Track quality 100.0 %     Test CRC 7E7C1E7F     Copy CRC 7E7C1E7F     Track not present in AccurateRip database     Copy OKTrack  2     Filename C:\My Music\bvdub - I Remember (translations of Morketid FLAC\02 We Said Forever.wav     Pre-gap length  0:00:02.00     Peak level 96.5 %     Extraction speed 1.9 X     Track quality 100.0 %     Test CRC 4C928488     Copy CRC 4C928488     Track not present in AccurateRip database     Copy OKTrack  3     Filename C:\My Music\bvdub - I Remember (translations of Morketid FLAC\03 The Promise (reprise) Feat. David Williams.wav     Pre-gap length  0:00:02.00     Peak level 96.5 %     Extraction speed 2.2 X     Track quality 100.0 %     Test CRC 1D981E35     Copy CRC 1D981E35     Track not present in AccurateRip database     Copy OKTrack  4     Filename C:\My Music\bvdub - I Remember (translations of Morketid FLAC\04 Would It Be The Same.wav     Pre-gap length  0:00:02.00     Peak level 96.6 %     Extraction speed 2.5 X     Track quality 100.0 %     Test CRC D75A25CA     Copy CRC D75A25CA     Track not present in AccurateRip database     Copy OKTrack  5     Filename C:\My Music\bvdub - I Remember (translations of Morketid FLAC\05 There Was Nothing But Beauty In My Heart.wav     Pre-gap length  0:00:02.00     Peak level 96.5 %     Extraction speed 2.7 X     Track quality 100.0 %     Test CRC 1E602780     Copy CRC 1E602780     Track not present in AccurateRip database     Copy OKTrack  6     Filename C:\My Music\bvdub - I Remember (translations of Morketid FLAC\06 A Taste of Your Own Medicine.wav     Pre-gap length  0:00:02.00     Peak level 96.6 %     Extraction speed 2.7 X     Track quality 100.0 %     Test CRC 9AF164B5     Copy CRC 9AF164B5     Track not present in AccurateRip database     Copy OKNone of the tracks are present in the AccurateRip databaseNo errors occurredEnd of status report==== Log checksum 524292809CD5F21B95102777E37E889C50FDE10C8282F0CF7FBDCD4ED810D90D ====

.cue

REM DATE 2011REM DISCID 5D127A06REM COMMENT "ExactAudioCopy v1.0b2"PERFORMER "bvdub"TITLE "I Remember (translations of 'Morketid')"FILE "01 - This Place Has Only Known Sadness.wav" WAVE  TRACK 01 AUDIO    TITLE "This Place Has Only Known Sadness"    PERFORMER "bvdub"    INDEX 01 00:00:00  TRACK 02 AUDIO    TITLE "We Said Forever"    PERFORMER "bvdub"    INDEX 00 16:08:00FILE "02 - We Said Forever.wav" WAVE    INDEX 01 00:00:00  TRACK 03 AUDIO    TITLE "The Promise (reprise) Feat. David Williams"    PERFORMER "bvdub"    INDEX 00 14:40:00FILE "03 - The Promise (reprise) Feat. David Williams.wav" WAVE    INDEX 01 00:00:00  TRACK 04 AUDIO    TITLE "Would It Be The Same"    PERFORMER "bvdub"    INDEX 00 14:40:00FILE "04 - Would It Be The Same.wav" WAVE    INDEX 01 00:00:00  TRACK 05 AUDIO    TITLE "There Was Nothing But Beauty In My Heart"    PERFORMER "bvdub"    INDEX 00 13:28:00FILE "05 - There Was Nothing But Beauty In My Heart.wav" WAVE    INDEX 01 00:00:00  TRACK 06 AUDIO    TITLE "A Taste of Your Own Medicine"    PERFORMER "bvdub"    INDEX 00 13:20:00FILE "06 - A Taste of Your Own Medicine.wav" WAVE    INDEX 01 00:00:00

[GM012] Stormloop ‎– Snowbound (2011) (CD)

Продолжительность: 53:44
Трэклист:01 - Stormloop - Snowbound (8:19)
02 - Stormloop - Cold Winds (7:19)
03 - Stormloop - A Blizzard (4:33)
04 - Stormloop - A Calm Reflection (7:38)
05 - Stormloop - Melt (2:42)
06 - Stormloop - Dense Fog (1:38)
07 - Stormloop - Drifting-Decent (7:40)
08 - Stormloop - Losing Sleep (4:51)
09 - Stormloop - Space Station J (4:39)
10 - Stormloop - Cygnus (4:26)

log

Exact Audio Copy V1.0 beta 2 from 29. April 2011EAC extraction logfile from 18. November 2011, 15:49Stormloop / Snowbound*Used drive  : HL-DT-STDVDRAM GP40LB10   Adapter: 1  ID: 0Read mode               : SecureUtilize accurate stream : YesDefeat audio cache      : YesMake use of C2 pointers : NoRead offset correction                      : 6Overread into Lead-In and Lead-Out          : NoFill up missing offset samples with silence : YesDelete leading and trailing silent blocks   : NoNull samples used in CRC calculations       : YesUsed interface                              : Native Win32 interface for Win NT & 2000Gap handling                                : Appended to previous trackUsed output format              : User Defined EncoderSelected bitrate                : 768 kBit/sQuality                         : HighAdd ID3 tag                     : NoCommand line compressor         : C:\Program Files (x86)\Exact Audio Copy\FLAC\FLAC.EXEAdditional command line options : -6 -V -T "ARTIST=%artist%" -T "TITLE=%title%" -T "ALBUM=%albumtitle%" -T "DATE=%year%" -T "TRACKNUMBER=%tracknr%" -T "GENRE=%genre%" -T "COMMENT=%comment%" -T "BAND=%albuminterpret%" -T "COMPOSER=%composer%" %haslyrics%--taTOC of the extracted CD     Track |   Start  |  Length  | Start sector | End sector    ---------------------------------------------------------        1  |  0:00.00 |  8:18.52 |         0    |    37401        2  |  8:18.52 |  7:18.42 |     37402    |    70293        3  | 15:37.19 |  4:32.54 |     70294    |    90747        4  | 20:09.73 |  7:38.16 |     90748    |   125113        5  | 27:48.14 |  2:42.11 |    125114    |   137274        6  | 30:30.25 |  1:37.47 |    137275    |   144596        7  | 32:07.72 |  7:39.65 |    144597    |   179086        8  | 39:47.62 |  4:50.60 |    179087    |   200896        9  | 44:38.47 |  4:39.03 |    200897    |   221824       10  | 49:17.50 |  4:26.00 |    221825    |   241774Track  1     Filename I:\Music1\Stormloop - Snowbound FLAC\01 snowbound.wav     Pre-gap length  0:00:02.00     Peak level 83.1 %     Extraction speed 3.1 X     Track quality 100.0 %     Test CRC 4A4116E7     Copy CRC 4A4116E7     Track not present in AccurateRip database     Copy OKTrack  2     Filename I:\Music1\Stormloop - Snowbound FLAC\02 cold winds.wav     Peak level 99.9 %     Extraction speed 3.3 X     Track quality 99.9 %     Test CRC 45CF3E4E     Copy CRC 45CF3E4E     Track not present in AccurateRip database     Copy OKTrack  3     Filename I:\Music1\Stormloop - Snowbound FLAC\03 a blizzard.wav     Peak level 100.0 %     Extraction speed 3.9 X     Track quality 100.0 %     Test CRC 0D8D6A48     Copy CRC 0D8D6A48     Track not present in AccurateRip database     Copy OKTrack  4     Filename I:\Music1\Stormloop - Snowbound FLAC\04 a calm reflection.wav     Peak level 100.0 %     Extraction speed 1.9 X     Track quality 100.0 %     Test CRC 25BA79E2     Copy CRC 25BA79E2     Track not present in AccurateRip database     Copy OKTrack  5     Filename I:\Music1\Stormloop - Snowbound FLAC\05 melt.wav     Peak level 71.6 %     Extraction speed 1.7 X     Track quality 100.0 %     Test CRC B767B967     Copy CRC B767B967     Track not present in AccurateRip database     Copy OKTrack  6     Filename I:\Music1\Stormloop - Snowbound FLAC\06 dense fog.wav     Peak level 74.8 %     Extraction speed 1.2 X     Track quality 99.8 %     Test CRC 6B2D9633     Copy CRC 6B2D9633     Track not present in AccurateRip database     Copy OKTrack  7     Filename I:\Music1\Stormloop - Snowbound FLAC\07 drifting descent.wav     Peak level 81.8 %     Extraction speed 2.1 X     Track quality 100.0 %     Test CRC 6DD7BE86     Copy CRC 6DD7BE86     Track not present in AccurateRip database     Copy OKTrack  8     Filename I:\Music1\Stormloop - Snowbound FLAC\08 losing sleep.wav     Peak level 83.7 %     Extraction speed 1.9 X     Track quality 99.9 %     Test CRC F294A6C9     Copy CRC F294A6C9     Track not present in AccurateRip database     Copy OKTrack  9     Filename I:\Music1\Stormloop - Snowbound FLAC\09 space station.wav     Peak level 72.7 %     Extraction speed 2.3 X     Track quality 100.0 %     Test CRC 9034CD75     Copy CRC 9034CD75     Track not present in AccurateRip database     Copy OKTrack 10     Filename I:\Music1\Stormloop - Snowbound FLAC\10 cygnus.wav     Peak level 98.3 %     Extraction speed 2.3 X     Track quality 100.0 %     Test CRC 74D44AEE     Copy CRC 74D44AEE     Track not present in AccurateRip database     Copy OKNone of the tracks are present in the AccurateRip databaseNo errors occurredEnd of status report==== Log checksum 3E23EADCABA6DBE4EFBAF73B2D7F77F080DBCA2EBF0C30FF79DC264572006D3B ====

.cue

REM DATE 2011REM DISCID 910C970AREM COMMENT "ExactAudioCopy v1.0b2"PERFORMER "Stormloop"TITLE "Snowbound*"FILE "01 - Snowbound.wav" WAVE  TRACK 01 AUDIO    TITLE "Snowbound"    PERFORMER "Stormloop"    INDEX 01 00:00:00FILE "02 - Cold Winds.wav" WAVE  TRACK 02 AUDIO    TITLE "Cold Winds"    PERFORMER "Stormloop"    INDEX 01 00:00:00FILE "03 - A Blizzard.wav" WAVE  TRACK 03 AUDIO    TITLE "A Blizzard"    PERFORMER "Stormloop"    INDEX 01 00:00:00FILE "04 - A Calm Reflection.wav" WAVE  TRACK 04 AUDIO    TITLE "A Calm Reflection"    PERFORMER "Stormloop"    INDEX 01 00:00:00FILE "05 - Melt.wav" WAVE  TRACK 05 AUDIO    TITLE "Melt"    PERFORMER "Stormloop"    INDEX 01 00:00:00FILE "06 - Dense Fog.wav" WAVE  TRACK 06 AUDIO    TITLE "Dense Fog"    PERFORMER "Stormloop"    INDEX 01 00:00:00FILE "07 - Drifting-Decent.wav" WAVE  TRACK 07 AUDIO    TITLE "Drifting-Decent"    PERFORMER "Stormloop"    INDEX 01 00:00:00FILE "08 - Losing Sleep.wav" WAVE  TRACK 08 AUDIO    TITLE "Losing Sleep"    PERFORMER "Stormloop"    INDEX 01 00:00:00FILE "09 - Space Station J.wav" WAVE  TRACK 09 AUDIO    TITLE "Space Station J"    PERFORMER "Stormloop"    INDEX 01 00:00:00FILE "10 - Cygnus.wav" WAVE  TRACK 10 AUDIO    TITLE "Cygnus"    PERFORMER "Stormloop"    INDEX 01 00:00:00

[GM0013] Pjusk ‎– Tele (2012) (CD)

Продолжительность: 50:54
Трэклист:01 - Pjusk - Fnugg (1:53)
02 - Pjusk - Gneis (7:02)
03 - Pjusk - Flint (5:00)
04 - Pjusk - Skifer (6:05)
05 - Pjusk - Krystall (6:20)
06 - Pjusk - Granitt (7:37)
07 - Pjusk - Kram (6:27)
08 - Pjusk - Bre (2:15)
09 - Pjusk - Polar (8:16)

log

[pre]Exact Audio Copy V1.0 beta 3 from 29. August 2011EAC extraction logfile from 9. March 2012, 20:01Pjusk / TeleUsed drive : HL-DT-STDVDRAM GP40LB10 Adapter: 1 ID: 0Read mode : SecureUtilize accurate stream : YesDefeat audio cache : YesMake use of C2 pointers : NoRead offset correction : 6Overread into Lead-In and Lead-Out : NoFill up missing offset samples with silence : YesDelete leading and trailing silent blocks : NoNull samples used in CRC calculations : YesUsed interface : Native Win32 interface for Win NT & 2000Gap handling : Appended to previous trackUsed output format : User Defined EncoderSelected bitrate : 768 kBit/sQuality : HighAdd ID3 tag : NoCommand line compressor : C:\Program Files (x86)\Exact Audio Copy\FLAC\FLAC.EXEAdditional command line options : -6 -V -T "ARTIST=%artist%" -T "TITLE=%title%" -T "ALBUM=%albumtitle%" -T "DATE=%year%" -T "TRACKNUMBER=%tracknr%" -T "GENRE=%genre%" -T "COMMENT=%comment%" -T "BAND=%albuminterpret%" -T "COMPOSER=%composer%" %haslyrics%--tag-from-file=LYRICS="%lyricsfile%"%haslyrics% -T "DISCNUMBER=%cdnumber%" -T "TOTALDISCS=%totalcds%" -T "TOTALTRACKS=%numtracks%" %hascover%--picture="%coverfile%"%hascover% %source% -o %dest%TOC of the extracted CD Track | Start | Length | Start sector | End sector

Для скачки контента: [Установить программу-клиент] и кликнуть по - СкачатьБезопасность: клиент проверен АВ Касперского

[asmlocator.ru].t487912.torrent 
Торрент: Зарегистрирован [ 2018-01-05 01:50 ] · A08E196EB3E520653EC57C9FC24D29C73C096479

Скачать .torrent

Скачать

208 KB

Статус: проверено
Скачан: 0 раз
Размер: 8,63 GB
terms.php
[Профиль] [ЛС]
Показать сообщения:    
Ответить на тему

Текущее время: 19-Июл 02:09

Часовой пояс: UTC ± 0



Вы не можете начинать темы
Вы не можете отвечать на сообщения
Вы не можете редактировать свои сообщения
Вы не можете удалять свои сообщения
Вы не можете голосовать в опросах
Вы не можете прикреплять файлы к сообщениям
Вы можете скачивать файлы