(Instrumental Rock Guitar, Acoustic Country Blues Rock, Acoustic Instrumental Fingerstyle Guitar) [CD] Jeff Aug - Wedding Song - 2012 (Brainstorm), FLAC (tracks+.cue), lossless

Reply to topic
DL-List and Torrent activity
Size:  223 MB   |    Registered:  1 year 6 months   |    Completed:  1 time

Seeder not seen: 37 minutes

 
   
 
 
Author Message

star21 ®

Gender: Female

Longevity: 3 years 8 months

Posts: 552050

Location: Екатеринбург

Post 04-Jan-2018 06:30

[Quote]

Jeff Aug - Wedding Song - 2012 (Brainstorm) Жанр: Instrumental Rock Guitar, Acoustic Country Blues Rock, Acoustic Instrumental Fingerstyle Guitar
Носитель: CD
Страна-производитель диска (релиза): Germany
Год издания оригинала: 2012
Издатель (лейбл): (c)&(p) Brainstorm Music Marketing AG / NetMusicZone
Номер по каталогу: LC 11050 (on disc) / nMZ0401582 (on back)
Страна исполнителя (группы) : USA
Дата / место записи: Living Room Studios in Germany during summer 2012Аудио кодек: FLAC (*.flac)
Тип рипа: (tracks + .cue)
Битрейт аудио: lossless
Наличие сканов в содержимом раздачи: full scans, png, 300 dpi
Продолжительность: 42:37
Источник (релизер): Моя коллекция, мой рипТрэклист:
1. Wedding Song (2:22)
2. The Crucible (1:43)
3. Mountain Pass (2:40)
4. Bird Watcher´s Dirge (2:53)
5. Diving Into The Autumn Deep (5:04)
6. Listen Up, Jazzhole! (2:11)
7. Still in the Hedge (1:22)
8. Industry Mule (2:45)
9. My Hotcake Cookin´ Mama (2:35)
10. Ten Steps to the River´s Edge (7:08)
11. Amsterdam (2:46)
12. Skyway to Cairo (1:58)
13. 7 Ate the Cat (And Called It a Boogie) (2:21)
14. Lullabye (2:41)
15. The Will Between Us (2:01)

Лог создания рипа

Exact Audio Copy V1.3 from 2. September 2016EAC extraction logfile from 17. December 2017, 20:44Jeff Aug / Wedding SongUsed drive  : HL-DT-STDVDRAM GH24NSB0   Adapter: 1  ID: 0Read mode               : SecureUtilize accurate stream : YesDefeat audio cache      : YesMake use of C2 pointers : NoRead offset correction                      : 6Overread into Lead-In and Lead-Out          : NoFill up missing offset samples with silence : YesDelete leading and trailing silent blocks   : NoNull samples used in CRC calculations       : YesUsed interface                              : Native Win32 interface for Win NT & 2000Gap handling                                : Appended to previous trackUsed output format              : User Defined EncoderSelected bitrate                : 1024 kBit/sQuality                         : HighAdd ID3 tag                     : NoCommand line compressor         : C:\Program Files (x86)\Exact Audio Copy\FLAC\FLAC.EXEAdditional command line options : -V -8 -T "Genre=%genre%" -T "Artist=%artist%" -T "Title=%title%" -T "Album=%albumtitle%" -T "Date=%year%" -T "Tracknumber=%tracknr%" -T "Comment=%comment%" %source%TOC of the extracted CD     Track |   Start  |  Length  | Start sector | End sector    ---------------------------------------------------------        1  |  0:00.00 |  2:22.17 |         0    |    10666        2  |  2:22.17 |  1:43.38 |     10667    |    18429        3  |  4:05.55 |  2:40.50 |     18430    |    30479        4  |  6:46.30 |  2:53.66 |     30480    |    43520        5  |  9:40.21 |  5:04.28 |     43521    |    66348        6  | 14:44.49 |  2:11.33 |     66349    |    76206        7  | 16:56.07 |  1:22.23 |     76207    |    82379        8  | 18:18.30 |  2:45.20 |     82380    |    94774        9  | 21:03.50 |  2:35.71 |     94775    |   106470       10  | 23:39.46 |  7:08.19 |    106471    |   138589       11  | 30:47.65 |  2:46.12 |    138590    |   151051       12  | 33:34.02 |  1:58.70 |    151052    |   159971       13  | 35:32.72 |  2:21.24 |    159972    |   170570       14  | 37:54.21 |  2:41.28 |    170571    |   182673       15  | 40:35.49 |  2:01.39 |    182674    |   191787Track  1     Filename D:\Music\MG rips\Jeff Aug - Wedding Song - 2012 (Brainstorm) [FLAC]\01 - Wedding Song.wav     Pre-gap length  0:00:02.00     Peak level 97.7 %     Extraction speed 0.9 X     Track quality 100.0 %     Test CRC D1B188A9     Copy CRC D1B188A9     Accurately ripped (confidence 2)  [9EB871B6]  (AR v2)     Copy OKTrack  2     Filename D:\Music\MG rips\Jeff Aug - Wedding Song - 2012 (Brainstorm) [FLAC]\02 - The Crucible.wav     Peak level 84.9 %     Extraction speed 0.9 X     Track quality 100.0 %     Test CRC E6CA810F     Copy CRC E6CA810F     Accurately ripped (confidence 2)  [EF9413A5]  (AR v2)     Copy OKTrack  3     Filename D:\Music\MG rips\Jeff Aug - Wedding Song - 2012 (Brainstorm) [FLAC]\03 - Mountain Pass.wav     Peak level 96.6 %     Extraction speed 0.9 X     Track quality 99.9 %     Test CRC FACCD5B3     Copy CRC FACCD5B3     Accurately ripped (confidence 2)  [FE117E57]  (AR v2)     Copy OKTrack  4     Filename D:\Music\MG rips\Jeff Aug - Wedding Song - 2012 (Brainstorm) [FLAC]\04 - Bird Watcherґs Dirge.wav     Pre-gap length  0:00:02.00     Peak level 95.7 %     Extraction speed 1.2 X     Track quality 100.0 %     Test CRC 5BAD9B8C     Copy CRC 5BAD9B8C     Accurately ripped (confidence 2)  [E60E30C5]  (AR v2)     Copy OKTrack  5     Filename D:\Music\MG rips\Jeff Aug - Wedding Song - 2012 (Brainstorm) [FLAC]\05 - Diving Into The Autumn Deep.wav     Peak level 97.1 %     Extraction speed 1.4 X     Track quality 100.0 %     Test CRC 50E64B56     Copy CRC 50E64B56     Accurately ripped (confidence 2)  [AE4CB158]  (AR v2)     Copy OKTrack  6     Filename D:\Music\MG rips\Jeff Aug - Wedding Song - 2012 (Brainstorm) [FLAC]\06 - Listen Up, Jazzhole!.wav     Peak level 98.5 %     Extraction speed 1.0 X     Track quality 99.9 %     Test CRC 8093CD19     Copy CRC 8093CD19     Accurately ripped (confidence 2)  [0BB7C6CB]  (AR v2)     Copy OKTrack  7     Filename D:\Music\MG rips\Jeff Aug - Wedding Song - 2012 (Brainstorm) [FLAC]\07 - Still In The Hedge.wav     Peak level 97.5 %     Extraction speed 0.9 X     Track quality 99.8 %     Test CRC FFB1540B     Copy CRC FFB1540B     Accurately ripped (confidence 2)  [CF863D59]  (AR v2)     Copy OKTrack  8     Filename D:\Music\MG rips\Jeff Aug - Wedding Song - 2012 (Brainstorm) [FLAC]\08 - Industry Mule.wav     Pre-gap length  0:00:02.00     Peak level 98.3 %     Extraction speed 1.4 X     Track quality 100.0 %     Test CRC DC49636D     Copy CRC DC49636D     Accurately ripped (confidence 2)  [E7ABC607]  (AR v2)     Copy OKTrack  9     Filename D:\Music\MG rips\Jeff Aug - Wedding Song - 2012 (Brainstorm) [FLAC]\09 - My Hotcake Cookinґ Mama.wav     Peak level 98.3 %     Extraction speed 1.4 X     Track quality 100.0 %     Test CRC B1389BC7     Copy CRC B1389BC7     Accurately ripped (confidence 2)  [D0D2FF8B]  (AR v2)     Copy OKTrack 10     Filename D:\Music\MG rips\Jeff Aug - Wedding Song - 2012 (Brainstorm) [FLAC]\10 - Ten Steps To The Riverґs Edge.wav     Pre-gap length  0:00:02.00     Peak level 98.1 %     Extraction speed 1.7 X     Track quality 99.9 %     Test CRC AA36BFD7     Copy CRC AA36BFD7     Accurately ripped (confidence 2)  [EFCDB8AF]  (AR v2)     Copy OKTrack 11     Filename D:\Music\MG rips\Jeff Aug - Wedding Song - 2012 (Brainstorm) [FLAC]\11 - Amsterdam.wav     Peak level 90.6 %     Extraction speed 1.7 X     Track quality 100.0 %     Test CRC BCCDDC50     Copy CRC BCCDDC50     Accurately ripped (confidence 2)  [5098CFC9]  (AR v2)     Copy OKTrack 12     Filename D:\Music\MG rips\Jeff Aug - Wedding Song - 2012 (Brainstorm) [FLAC]\12 - Skyway To Cairo.wav     Peak level 97.3 %     Extraction speed 1.6 X     Track quality 100.0 %     Test CRC 45645A92     Copy CRC 45645A92     Accurately ripped (confidence 2)  [8F67109C]  (AR v2)     Copy OKTrack 13     Filename D:\Music\MG rips\Jeff Aug - Wedding Song - 2012 (Brainstorm) [FLAC]\13 - 7 Ate The Cat (And Called It A Boogie).wav     Peak level 98.8 %     Extraction speed 1.7 X     Track quality 100.0 %     Test CRC E709A5AF     Copy CRC E709A5AF     Accurately ripped (confidence 2)  [B02DD896]  (AR v2)     Copy OKTrack 14     Filename D:\Music\MG rips\Jeff Aug - Wedding Song - 2012 (Brainstorm) [FLAC]\14 - Lullabye.wav     Pre-gap length  0:00:02.00     Peak level 98.7 %     Extraction speed 1.8 X     Track quality 100.0 %     Test CRC 8C2080BC     Copy CRC 8C2080BC     Accurately ripped (confidence 2)  [7BA1B87D]  (AR v2)     Copy OKTrack 15     Filename D:\Music\MG rips\Jeff Aug - Wedding Song - 2012 (Brainstorm) [FLAC]\15 - The Will Between Us.wav     Peak level 97.9 %     Extraction speed 1.4 X     Track quality 99.9 %     Test CRC 094CBF16     Copy CRC 094CBF16     Accurately ripped (confidence 2)  [8B78448A]  (AR v2)     Copy OKAll tracks accurately rippedNo errors occurredEnd of status report==== Log checksum 9CC31D46A8E83E10BE28C0F905BFEDA28AEC343ADACBCDB33EF3FF9F742F3BD3 ====

Содержание индексной карты (.CUE):

REM GENRE FingerstyleREM DATE 2012REM DISCID B509FD0FREM COMMENT "ExactAudioCopy v1.3"CATALOG 4027791006611PERFORMER "Jeff Aug"TITLE "Wedding Song"REM COMPOSER ""FILE "01 - Wedding Song.wav" WAVE  TRACK 01 AUDIO    TITLE "Wedding Song"    PERFORMER "Jeff Aug"    REM COMPOSER ""    ISRC DER651110601    INDEX 01 00:00:00FILE "02 - The Crucible.wav" WAVE  TRACK 02 AUDIO    TITLE "The Crucible"    PERFORMER "Jeff Aug"    REM COMPOSER ""    ISRC DER651110602    INDEX 01 00:00:00FILE "03 - Mountain Pass.wav" WAVE  TRACK 03 AUDIO    TITLE "Mountain Pass"    PERFORMER "Jeff Aug"    REM COMPOSER ""    ISRC DER651110603    INDEX 01 00:00:00  TRACK 04 AUDIO    TITLE "Bird Watcherґs Dirge"    PERFORMER "Jeff Aug"    REM COMPOSER ""    ISRC DER651110604    INDEX 00 02:38:50FILE "04 - Bird Watcherґs Dirge.wav" WAVE    INDEX 01 00:00:00FILE "05 - Diving Into The Autumn Deep.wav" WAVE  TRACK 05 AUDIO    TITLE "Diving Into The Autumn Deep"    PERFORMER "Jeff Aug"    REM COMPOSER ""    ISRC DER651110605    INDEX 01 00:00:00FILE "06 - Listen Up, Jazzhole!.wav" WAVE  TRACK 06 AUDIO    TITLE "Listen Up, Jazzhole!"    PERFORMER "Jeff Aug"    REM COMPOSER ""    ISRC DER651110606    INDEX 01 00:00:00FILE "07 - Still In The Hedge.wav" WAVE  TRACK 07 AUDIO    TITLE "Still In The Hedge"    PERFORMER "Jeff Aug"    REM COMPOSER ""    ISRC DER651110607    INDEX 01 00:00:00  TRACK 08 AUDIO    TITLE "Industry Mule"    PERFORMER "Jeff Aug"    REM COMPOSER ""    ISRC DER651110608    INDEX 00 01:20:23FILE "08 - Industry Mule.wav" WAVE    INDEX 01 00:00:00FILE "09 - My Hotcake Cookinґ Mama.wav" WAVE  TRACK 09 AUDIO    TITLE "My Hotcake Cookinґ Mama"    PERFORMER "Jeff Aug"    REM COMPOSER ""    ISRC DER651110609    INDEX 01 00:00:00  TRACK 10 AUDIO    TITLE "Ten Steps To The Riverґs Edge"    PERFORMER "Jeff Aug"    REM COMPOSER ""    ISRC DER651110610    INDEX 00 02:33:71FILE "10 - Ten Steps To The Riverґs Edge.wav" WAVE    INDEX 01 00:00:00FILE "11 - Amsterdam.wav" WAVE  TRACK 11 AUDIO    TITLE "Amsterdam"    PERFORMER "Jeff Aug"    REM COMPOSER ""    ISRC DER651110611    INDEX 01 00:00:00FILE "12 - Skyway To Cairo.wav" WAVE  TRACK 12 AUDIO    TITLE "Skyway To Cairo"    PERFORMER "Jeff Aug"    REM COMPOSER ""    ISRC DER651110612    INDEX 01 00:00:00FILE "13 - 7 Ate The Cat (And Called It A Boogie).wav" WAVE  TRACK 13 AUDIO    TITLE "7 Ate The Cat (And Called It A Boogie)"    PERFORMER "Jeff Aug"    REM COMPOSER ""    ISRC DER651110613    INDEX 01 00:00:00  TRACK 14 AUDIO    TITLE "Lullabye"    PERFORMER "Jeff Aug"    REM COMPOSER ""    ISRC DER651110614    INDEX 00 02:19:24FILE "14 - Lullabye.wav" WAVE    INDEX 01 00:00:00FILE "15 - The Will Between Us.wav" WAVE  TRACK 15 AUDIO    TITLE "The Will Between Us"    PERFORMER "Jeff Aug"    REM COMPOSER ""    ISRC DER651110615    INDEX 01 00:00:00

Лог проверки качества


 
 

Лог CUETools

[CUETools log; Date: 12/21/2017 5:55:45 AM; Version: 2.1.5][CTDB TOCID: .3vLOn1w4St_TJ4D3tjb3crYjTE-] found.Track | CTDB Status  1   | (2/2) Accurately ripped  2   | (2/2) Accurately ripped  3   | (2/2) Accurately ripped  4   | (2/2) Accurately ripped  5   | (2/2) Accurately ripped  6   | (2/2) Accurately ripped  7   | (2/2) Accurately ripped  8   | (2/2) Accurately ripped  9   | (2/2) Accurately ripped 10   | (2/2) Accurately ripped 11   | (2/2) Accurately ripped 12   | (2/2) Accurately ripped 13   | (2/2) Accurately ripped 14   | (2/2) Accurately ripped 15   | (2/2) Accurately ripped[AccurateRip ID: 001740d7-010b9b58-b509fd0f] found.Track   [  CRC   |   V2   ] Status 01     [fbb4ada5|9eb871b6] (0+2/2) Accurately ripped 02     [e6b7af6e|ef9413a5] (0+2/2) Accurately ripped 03     [c23f01ad|fe117e57] (0+2/2) Accurately ripped 04     [92aa4b3f|e60e30c5] (0+2/2) Accurately ripped 05     [24a02ea2|ae4cb158] (0+2/2) Accurately ripped 06     [19b86b73|0bb7c6cb] (0+2/2) Accurately ripped 07     [f2ac58bf|cf863d59] (0+2/2) Accurately ripped 08     [5490c071|e7abc607] (0+2/2) Accurately ripped 09     [c33b5347|d0d2ff8b] (0+2/2) Accurately ripped 10     [9740a206|efcdb8af] (0+2/2) Accurately ripped 11     [46f35423|5098cfc9] (0+2/2) Accurately ripped 12     [72679d4e|8f67109c] (0+2/2) Accurately ripped 13     [ed028391|b02dd896] (0+2/2) Accurately ripped 14     [b60a99f6|7ba1b87d] (0+2/2) Accurately ripped 15     [7dad64bf|8b78448a] (0+2/2) Accurately rippedTrack Peak [ CRC32  ] [W/O NULL] [  LOG   ] --   98.8 [88F164F1] [25EB28F4] 01   97.7 [D1B188A9] [D20DFE61]   CRC32 02   84.9 [E6CA810F] [ED63E961]   CRC32 03   96.6 [FACCD5B3] [3BD91CCC]   CRC32 04   95.7 [5BAD9B8C] [92FAB041]   CRC32 05   97.1 [50E64B56] [5AFFD2F4]   CRC32 06   98.5 [8093CD19] [B6A9E87B]   CRC32 07   97.5 [FFB1540B] [68041215]   CRC32 08   98.3 [DC49636D] [6D874E10]   CRC32 09   98.3 [B1389BC7] [61675C37]   CRC32 10   98.1 [AA36BFD7] [C9B1FB26]   CRC32 11   90.6 [BCCDDC50] [407ED79A]   CRC32 12   97.3 [45645A92] [03ACAC02]   CRC32 13   98.8 [E709A5AF] [35E48F14]   CRC32 14   98.7 [8C2080BC] [76C104CD]   CRC32 15   97.9 [094CBF16] [85AD2294]   CRC32

Замер динамического диапазона

foobar2000 1.3.10 / Замер динамического диапазона (DR) 1.1.1Дата отчёта:  2017-12-22 12:01:49--------------------------------------------------------------------------------Анализ:   Jeff Aug / Wedding Song--------------------------------------------------------------------------------DR         Пики         RMS           Продолжительность трека--------------------------------------------------------------------------------DR13      -0.20 дБ   -15.48 дБ      2:22 01-Wedding SongDR9       -1.42 дБ   -13.15 дБ      1:44 02-The CrucibleDR13      -0.30 дБ   -16.55 дБ      2:41 03-Mountain PassDR12      -0.37 дБ   -15.59 дБ      2:54 04-Bird Watcherґs DirgeDR11      -0.25 дБ   -14.34 дБ      5:04 05-Diving Into The Autumn DeepDR10      -0.13 дБ   -12.21 дБ      2:11 06-Listen Up, Jazzhole!DR11      -0.21 дБ   -13.69 дБ      1:22 07-Still In The HedgeDR11      -0.15 дБ   -12.57 дБ      2:45 08-Industry MuleDR11      -0.15 дБ   -12.95 дБ      2:36 09-My Hotcake Cookinґ MamaDR11      -0.17 дБ   -15.13 дБ      7:08 10-Ten Steps To The Riverґs EdgeDR12      -0.85 дБ   -15.26 дБ      2:46 11-AmsterdamDR12      -0.23 дБ   -14.47 дБ      1:59 12-Skyway To CairoDR12      -0.10 дБ   -15.09 дБ      2:21 13-7 Ate The Cat (And Called It A Boogie)DR11      -0.11 дБ   -14.91 дБ      2:41 14-LullabyeDR11      -0.18 дБ   -14.12 дБ      2:02 15-The Will Between Us--------------------------------------------------------------------------------Количество треков: 15Реальные значения DR: DR11Частота:   44100 ГцКаналов:   2Разрядность:   16Битрейт:   632 кбит/сКодек:   FLAC================================================================================

Back

Диск

Матрица

Об альбоме (сборнике):

It´s been 3 years, 1 world record, 2 tours , 4 European tours with Anne Clark, 1 tour as support for Soft Machine, countless solo headline performances across the U.S. and Europe (including Fusion Festival, Krach am Bach Festival, Klangbad Festival, and others), and 6 major features in guitar magazines worldwide (including Gitarist, Guitar, Guitar Player, Akustik Gitarre, Guitar Acoustic) since JEFF AUG released his last solo album Living Room Sessions in 2009. After a gruelling year of recording and touring which included tours with Soft Machine and Johnny A., as well as a performance supporting John Kadlecik (Furthur) in the U.S., Jeff Aug will be releasing his 5th solo album Wedding Song on Friday, 02.March 2012.To promote the new album, Jeff Aug will be doing a full on European tour in one day. That will be 9x concerts in 9x countries in 24 hours. Guinness Book of World Records ™ officially recognizes these 9 x concerts as an attempt to set a new world record for the category of 'Most concerts performed in different countries in 24 hours´:
JEFF AUG - Raw Fingers & Steel Strings World Record Tour 2012
presented by LIVE-IN Magazine, Ratrax, Becker Navigation, GUITAR Magazine, D´Addario Strings, Planet Waves Cables, AER Amplification, Dunlop StrapLoks, Ticket69.de, & Rapunzel
03.03.2012, 12:15 AM, LU-Heinerscheid, Centre culturel à Heinerscheid
03.03.2012, 01:45 AM, BE-Sankt Vith, Triangel
03.03.2012, 03:40 AM, NL-Maastricht, Sociëteit SV KoKo
03.03.2012, 05:40 AM, DE-Düsseldorf, O´Reilly´s
03.03.2012, 10:00 AM, FR-Paris, Les Bus Palladium
03.03.2012, 03:30 PM, IT-Milan, Land Of Live
03.03.2012, 05:15 PM, CH-Mendrisio, La Birraria in Mendirsio
03.03.2012, 08:45 PM, FL-Vaduz, Tattoo-Convention Liechtenstein
03.03.2012, 10:45 PM, AT-Hohenems, LöwensaalThe fingers keep on moving and doing what they´re doing,” says Aug when describing the prolific writing process associated with his newest solo guitar release Wedding Song. In addition to Jeff´s hypnotic acoustic instrumental fingerstyle guitar work, Wedding Song introduces Jeff´s baritone guitar debut on the track “Diving Into The Autumn Deep.” Delayed electric guitar volume swells appear on a couple of tracks, as well as the guest appearance by pianist Murat Parlak on the album´s closing track “The Will Between Us.” The title of the new solo album (Jeff´s 5th) is Wedding Song, and, as with his last release, was recorded in the living room of pianist and composer Murat Parlak (Yehudi Menuhin, Branford Marsalis, Anne Clark). Release date will be Friday, 02.March 2012.
Jeff Aug is a cool underground guitarist from Washington, D.C. He has toured with Allan Holdsworth, Soft Machine, Albert Lee, Johnny A., and has performed shows with Jawbox, Shudder To Think, and Ice-T & Bodycount with his old band. He's worked with John Stabb from Government Issue, has been touring and recording with Anne Clark for the last 10 years, and has been touring as a solo guitarist for the last 20 years. Jeff can also be heard on the new Atari Teenage Riot album “Is This Hyperreal?” released in June 2011 (Dim Mak Records / Digital Hardcore Records).

To download the content you need:
1. Download and install torrent client [for Windows] or for mobile system
2. Click on [Download]
Attention.
If the test YOU are NOT a ROBOT - does not work, then You are using an outdated browser.
Install the current browser and click on [Download]
Security: torrent client is allowed by Kaspersky.

[asmlocator.ru].t486974.torrent 
Torrent: Registered [ 2018-01-04 06:30 ] · 9B50B36C34D8B35FB39B5B9A8E73543999CDE2E1

Download .torrent

Download

19 KB

Status: checked
Completed: 1 times
Size: 223 MB
terms.php
[Profile] [PM]
Display posts:    
Reply to topic

Current time is: 17-Jul 05:42

All times are UTC ± 0



You cannot post new topics in this forum
You cannot reply to topics in this forum
You cannot edit your posts in this forum
You cannot delete your posts in this forum
You cannot vote in polls in this forum
You cannot attach files in this forum
You can download files in this forum