Тачки 3 в 3Д / Cars 3 3D (Брайан Фи / Brian Fe) [2017, Мультфильм, Комедия, Приключения, Семейный, Спорт, BDrip, 1080p] OverUnder / Вертикальная стереопара

Ответить на тему
Статистика раздачи
Размер:  10,08 GB   |    Зарегистрирован:  25 дней   |    Скачан:  0 раз

Полного источника не было: Никогда

 
   
 
 
Автор Сообщение

star21 ®

Пол: Не указан

Стаж: 2 года 2 месяца

Сообщений: 354172

Создавать темы 30-Дек-2017 06:36

[Цитировать]

Тачки 3 / Cars 3 Год выпуска: 2017
Страна: США (Walt Disney Pictures, Pixar Animation Studios)
Жанр: Мультфильм, Комедия, Приключения, Семейный, Спорт
Продолжительность: 01:42:25Перевод: Профессиональный дублированный(лицензия)
Русские субтитры: нет
Режиссер: Брайан Фи / Brian FeРоли озвучивали: Оуэн Уилсон, Пол Ньюман, Бонни Хант, Ларри Кейбл Гай, Чич Марин, Тони Шэлоуб, Гуидо Куарони, Дженифер Льюис, Пол Дули, Майкл УоллисОписание: Встречайте самого знаменитого гонщика всех времен, легенду гоночного трека Молнию Маккуина!
Герой все еще продолжает показывать лучшие результаты на всех турнирах, однако победы даются ему не так легко, а конкуренция становится все жестче. Молнию Маккуина ждут захватывающие приключения, где он встретит новых друзей, а также поймет, что не только скорость и мощность мотора делают гонщика чемпионом.Сэмпл: http://sendfile.su/1378385Качество: BDrip
Контейнер: MKV
Формат 3D: OverUnder / Вертикальная стереопара
Порядок ракурсов: левый ракурс первый
Видео кодек: x264
Аудио кодек: AC3
Видео: AVC / High@L5.0 / 23,976 fps / 1920х2160 / 12,5 Мбит/сек
Аудио: Русский / AC3 / 48 KHz / 5.1 ch / 640 Кбит/сек(лицензия)
Аудио 2: Английский / AC3 / 48 KHz / 5.1 ch / 640 Кбит/сек ВНИМАНИЕ ! На встроенных ТВ-плеерах работать не будет!!!
ТВ Samsung в названии которого есть надпись Ultra HD , и LG Ultra HD 800 серии, LG C6P, Xiaomi Mi TV 2 воспроизводят полные стереопары встроенными плеерами
Железные плееры на которых воспроизводятся полные стереопары:Popcorn C-200 , Dune HD Smart D1 , Dune HD DUO , Dune HD Smart H1 , Dune HD Smart B1 , Dune HD Max , Dune HD TV-303D , Dune HD Base 3D, Philips HMP7001, Aura HD, MECOOL BB2
Чтобы изображение было на весь экран в плеере выставляем, если рип 1920х1600 - то выставляем 2.35:1 , если 1920х2160 - то выставляем 16:918.11.2017. Релиз обновлён - русская звуковая дорога iTunes заменена на лицензию.
Желающие, скачайте заново торрент-файл.

MediaInfo

Общее
Уникальный идентификатор : 193005937451955282162457891829865154103 (0x913397688087B7398144B24335328637)
Полное имя : E:\закачки\Cars 3.Rip by SeRoGa00.mkv
Формат : Matroska
Версия формата : Version 2
Размер файла : 9,89 Гбайт
Продолжительность : 1 ч. 42 м.
Общий поток : 13,8 Мбит/сек
Дата кодирования : UTC 2017-11-10 05:24:09
Программа кодирования : mkvmerge v3.4.0 ('Rapunzel') сборка от May 15 2010 09:38:20
Библиотека кодирования : libebml v0.8.0 + libmatroska v0.9.0Видео
Идентификатор : 1
Формат : AVC
Формат/Информация : Advanced Video Codec
Профиль формата : High@L5.0
Параметр CABAC формата : Да
Параметр ReFrames формата : 4 кадра
Идентификатор кодека : V_MPEG4/ISO/AVC
Продолжительность : 1 ч. 42 м.
Битрейт : 12,5 Мбит/сек
Ширина : 1920 пикселей
Высота : 2160 пикселей
Соотношение сторон : 0,889
Частота кадров : 23,976 кадра/сек
Цветовое пространство : YUV
Субдискретизация насыщенности : 4:2:0
Битовая глубина : 8 бит
Тип развёртки : Прогрессивная
Бит/(Пиксели*Кадры) : 0.126
Размер потока : 8,96 Гбайт (91%)
Заголовок : Rip by SeRoGa00
Библиотека кодирования : x264 core 148 r2762 90a61ec
Настройки программы : cabac=1 / ref=4 / deblock=1:-3:-3 / analyse=0x3:0x113 / me=umh / subme=10 / psy=1 / psy_rd=1.00:0.15 / mixed_ref=1 / me_range=24 / chroma_me=1 / trellis=2 / 8x8dct=1 / cqm=0 / deadzone=21,11 / fast_pskip=1 / chroma_qp_offset=-3 / threads=9 / lookahead_threads=2 / sliced_threads=0 / nr=0 / decimate=1 / interlaced=0 / bluray_compat=0 / constrained_intra=0 / bframes=10 / b_pyramid=2 / b_adapt=2 / b_bias=0 / direct=3 / weightb=1 / open_gop=0 / weightp=2 / keyint=250 / keyint_min=23 / scenecut=40 / intra_refresh=0 / rc_lookahead=60 / rc=crf / mbtree=1 / crf=18.0 / qcomp=0.60 / qpmin=10 / qpmax=69 / qpstep=4 / vbv_maxrate=40000 / vbv_bufsize=40000 / crf_max=0.0 / nal_hrd=none / filler=0 / ip_ratio=1.40 / aq=1:1.00
Язык : English
Default : Нет
Forced : НетАудио #1
Идентификатор : 2
Формат : AC-3
Формат/Информация : Audio Coding 3
Расширение режима : CM (complete main)
Параметр Endianness формата : Big
Идентификатор кодека : A_AC3
Продолжительность : 1 ч. 42 м.
Вид битрейта : Постоянный
Битрейт : 640 Кбит/сек
Каналы : 6 каналов
Расположение каналов : Front: L C R, Side: L R, LFE
Частота : 48,0 КГц
Битовая глубина : 16 бит
Метод сжатия : С потерями
Размер потока : 281 Мбайт (3%)
Язык : Russian
Default : Да
Forced : НетАудио #2
Идентификатор : 3
Формат : AC-3
Формат/Информация : Audio Coding 3
Расширение режима : CM (complete main)
Параметр Endianness формата : Big
Идентификатор кодека : A_AC3
Продолжительность : 1 ч. 42 м.
Вид битрейта : Постоянный
Битрейт : 640 Кбит/сек
Каналы : 6 каналов
Расположение каналов : Front: L C R, Side: L R, LFE
Частота : 48,0 КГц
Битовая глубина : 16 бит
Метод сжатия : С потерями
Размер потока : 469 Мбайт (5%)
Язык : English
Default : Нет
Forced : Нет

Скриншоты


Для скачки контента: [Установить программу-клиент] и кликнуть по - Скачать

[asmlocator.ru].t482473.torrent 
Торрент: Зарегистрирован [ 2017-12-30 06:35 ] · 9CA6D3360EA4488A5BFEFF89E6246C051F8B61C3

Скачать .torrent

Скачать

51 KB

Статус: проверено
Скачан: 0 раз
Размер: 10,08 GB
terms.php
[Профиль] [ЛС]
Показать сообщения:    
Ответить на тему

Текущее время: 24-Янв 07:22

Часовой пояс: UTC ± 0



Вы не можете начинать темы
Вы не можете отвечать на сообщения
Вы не можете редактировать свои сообщения
Вы не можете удалять свои сообщения
Вы не можете голосовать в опросах
Вы не можете прикреплять файлы к сообщениям
Вы можете скачивать файлы