(Retro - Shanson) [CD] Биртман - Ваши любимые песни - 2016, FLAC (image+.cue), lossless

Ответить на тему
Статистика раздачи
Размер:  307 MB   |    Зарегистрирован:  1 год 10 месяцев   |    Скачан:  1 раз

Полного источника не было: 1 день 17 часов

 
   
 
 
Автор Сообщение

star21 ®

Пол: Женский

Стаж: 3 года 11 месяцев

Сообщений: 551988

Откуда: Екатеринбург

Создавать темы 20-Дек-2017 12:35

[Цитировать]

Биртман / Ваши любимые песни Жанр: Retro - Shanson
Носитель: CD
Страна-производитель диска (релиза): Россия
Год издания: 2016
Издатель (лейбл): ООО "Союз Мьюзик"
Номер по каталогу: SZCD 1107-16
Страна исполнителя (группы): Россия
Аудиокодек: FLAC (*.flac)
Тип рипа: image+.cue
Битрейт аудио: lossless
Продолжительность: 00:50:42
Источник (релизер): Собственный рип
Наличие сканов в содержимом раздачи: нет
Треклист:
01. Олень
02. Все диджеи петушье
03. Любовь и лед
04. Человек говно
05. Селфи
06.Чак Норрис
07. Галя, загорай!
08. Лайки
09. Пригласите негра танцевать
10. Магнитик
11. Ты не лезь ко мне, когда я пьяный
12. Коньяк "Арарат"
13. Зачем уходишь ты?
14. ILWT & Биртман - Сочи (Bonus Track)

Лог создания рипа

Exact Audio Copy V1.0 beta 3 from 29. August 2011EAC extraction logfile from 3. November 2017, 22:13Биртман / Ваши любимые песниUsed drive  : ASUS    DRW-24B3ST   Adapter: 0  ID: 0Read mode               : SecureUtilize accurate stream : YesDefeat audio cache      : YesMake use of C2 pointers : NoRead offset correction                      : 6Overread into Lead-In and Lead-Out          : NoFill up missing offset samples with silence : YesDelete leading and trailing silent blocks   : NoNull samples used in CRC calculations       : YesUsed interface                              : Native Win32 interface for Win NT & 2000Used output format              : User Defined EncoderSelected bitrate                : 768 kBit/sQuality                         : HighAdd ID3 tag                     : NoCommand line compressor         : C:\Program Files (x86)\Exact Audio Copy\FLAC\FLAC.EXEAdditional command line options : -6 -V -T "ARTIST=%artist%" -T "TITLE=%title%" -T "ALBUM=%albumtitle%" -T "DATE=%year%" -T "TRACKNUMBER=%tracknr%" -T "GENRE=%genre%" -T "COMMENT=%comment%" -T "BAND=%albuminterpret%" -T "ALBUMARTIST=%albuminterpret%" -T "COMPOSER=%composer%" %haslyrics%--tag-from-file=LYRICS="%lyricsfile%"%haslyrics% -T "DISCNUMBER=%cdnumber%" -T "TOTALDISCS=%totalcds%" -T "TOTALTRACKS=%numtracks%" %hascover%--picture="%coverfile%"%hascover% %source% -o %dest%TOC of the extracted CD     Track |   Start  |  Length  | Start sector | End sector    ---------------------------------------------------------        1  |  0:00.00 |  3:49.00 |         0    |    17174        2  |  3:49.00 |  3:56.00 |     17175    |    34874        3  |  7:45.00 |  3:39.00 |     34875    |    51299        4  | 11:24.00 |  2:14.55 |     51300    |    61404        5  | 13:38.55 |  4:56.00 |     61405    |    83604        6  | 18:34.55 |  4:17.00 |     83605    |   102879        7  | 22:51.55 |  2:41.19 |    102880    |   114973        8  | 25:32.74 |  2:55.00 |    114974    |   128098        9  | 28:27.74 |  4:07.30 |    128099    |   146653       10  | 32:35.29 |  3:24.15 |    146654    |   161968       11  | 35:59.44 |  3:34.00 |    161969    |   178018       12  | 39:33.44 |  3:53.00 |    178019    |   195493       13  | 43:26.44 |  3:05.60 |    195494    |   209428       14  | 46:32.29 |  4:10.00 |    209429    |   228178Range status and errorsSelected range     Filename E:\Биртман - Ваши любимые песни.wav     Peak level 86.7 %     Extraction speed 6.1 X     Range quality 100.0 %     Test CRC 5522C5E9     Copy CRC 5522C5E9     Copy OKNo errors occurredAccurateRip summaryTrack  1  not present in databaseTrack  2  not present in databaseTrack  3  not present in databaseTrack  4  not present in databaseTrack  5  not present in databaseTrack  6  not present in databaseTrack  7  not present in databaseTrack  8  not present in databaseTrack  9  not present in databaseTrack 10  not present in databaseTrack 11  not present in databaseTrack 12  not present in databaseTrack 13  not present in databaseTrack 14  not present in databaseNone of the tracks are present in the AccurateRip databaseEnd of status report==== Log checksum C1931E2FA89D1598DAB01EAED7BDC8FCDAEF6892AF2DAB2ADF236DD5BB1BC17F ====

Содержание индексной карты (.CUE)

REM GENRE RetroREM DATE 2016REM DISCID C30BE20EREM COMMENT "ExactAudioCopy v1.0b3"PERFORMER "Биртман"TITLE "Ваши любимые песни"FILE "Биртман - Ваши любимые песни.flac" WAVE  TRACK 01 AUDIO    TITLE "Олень"    PERFORMER "Биртман"    INDEX 01 00:00:00  TRACK 02 AUDIO    TITLE "Все диджеи петушье"    PERFORMER "Биртман"    INDEX 01 03:49:00  TRACK 03 AUDIO    TITLE "Любовь и лед"    PERFORMER "Биртман"    INDEX 01 07:45:00  TRACK 04 AUDIO    TITLE "Человек говно"    PERFORMER "Биртман"    INDEX 01 11:24:00  TRACK 05 AUDIO    TITLE "Селфи"    PERFORMER "Биртман"    INDEX 01 13:38:55  TRACK 06 AUDIO    TITLE "Чак Норрис"    PERFORMER "Биртман"    INDEX 01 18:34:55  TRACK 07 AUDIO    TITLE "Галя, загорай!"    PERFORMER "Биртман"    INDEX 01 22:51:55  TRACK 08 AUDIO    TITLE "Лайки"    PERFORMER "Биртман"    INDEX 01 25:32:74  TRACK 09 AUDIO    TITLE "Пригласите негра танцевать"    PERFORMER "Биртман"    INDEX 01 28:27:74  TRACK 10 AUDIO    TITLE "Магнитик"    PERFORMER "Биртман"    INDEX 01 32:35:29  TRACK 11 AUDIO    TITLE "Ты не лезь ко мне, когда я пьяный"    PERFORMER "Биртман"    INDEX 01 35:59:44  TRACK 12 AUDIO    TITLE "Коньяк 'Арарат'"    PERFORMER "Биртман"    INDEX 01 39:33:44  TRACK 13 AUDIO    TITLE "Зачем уходишь ты?"    PERFORMER "Биртман"    INDEX 01 43:26:44  TRACK 14 AUDIO    TITLE "ILWT & Биртман - Сочи"    PERFORMER "Биртман"    INDEX 01 46:32:29

Лог проверки качества

AUDIOCHECKER v2.0 beta (build 457) - by Dester - opdester@freemail.hu~~~~~~~~~~~~~~~~~~~~~~~~~~~~~~~~~~Started at: суббота, 04. 11. 2017. - 14:35.3714 files found01 -===- E:\!!!НУЖНОЕ!!!\01 - Олень.flac  Extracted successfully  Conclusion: this track is CDDA with probability 100%  Tempfile successfully deleted.02 -===- E:\!!!НУЖНОЕ!!!\02 - Все диджеи петушье.flac  Extracted successfully  Conclusion: this track is CDDA with probability 100%  Tempfile successfully deleted.03 -===- E:\!!!НУЖНОЕ!!!\03 - Любовь и лед.flac  Extracted successfully  Conclusion: this track is MPEG with probability 95%  Tempfile successfully deleted.04 -===- E:\!!!НУЖНОЕ!!!\04 - Человек говно.flac  Extracted successfully  Conclusion: this track is CDDA with probability 100%  Tempfile successfully deleted.05 -===- E:\!!!НУЖНОЕ!!!\05 - Селфи.flac  Extracted successfully  Conclusion: this track is MPEG with probability 95%  Tempfile successfully deleted.06 -===- E:\!!!НУЖНОЕ!!!\06 - Чак Норрис.flac  Extracted successfully  Conclusion: this track is MPEG with probability 95%  Tempfile successfully deleted.07 -===- E:\!!!НУЖНОЕ!!!\07 - Галя, загорай!.flac  Extracted successfully  Conclusion: this track is CDDA with probability 100%  Tempfile successfully deleted.08 -===- E:\!!!НУЖНОЕ!!!\08 - Лайки.flac  Extracted successfully  Conclusion: this track is MPEG with probability 95%  Tempfile successfully deleted.09 -===- E:\!!!НУЖНОЕ!!!\09 - Пригласите негра танцевать.flac  Extracted successfully  Conclusion: this track is MPEG with probability 95%  Tempfile successfully deleted.10 -===- E:\!!!НУЖНОЕ!!!\10 - Магнитик.flac  Extracted successfully  Conclusion: this track is CDDA with probability 100%  Tempfile successfully deleted.11 -===- E:\!!!НУЖНОЕ!!!\11 - Ты не лезь ко мне, когда я пьяный.flac  Extracted successfully  Conclusion: this track is CDDA with probability 99%  Tempfile successfully deleted.12 -===- E:\!!!НУЖНОЕ!!!\12 - Коньяк 'Арарат'.flac  Extracted successfully  Conclusion: this track is CDDA with probability 100%  Tempfile successfully deleted.13 -===- E:\!!!НУЖНОЕ!!!\13 - Зачем уходишь ты.flac  Extracted successfully  Conclusion: this track is CDDA with probability 100%  Tempfile successfully deleted.14 -===- E:\!!!НУЖНОЕ!!!\14 - ILWT & Биртман - Сочи.flac  Extracted successfully  Conclusion: this track is CDDA with probability 100%  Tempfile successfully deleted.Finished at: суббота, 04. 11. 2017. - 14:37.23 (operation time: 0:01.45)

Скриншот спектра частот

Доп. информация: Материал выложен ИСКЛЮЧИТЕЛЬНО для ознакомления, так что не забудьте удалить его с жёсткого диска после ознакомления, пойти в магазин и купить лицензионный CD!

Чтобы скачать этот контент, Вам необходимо:
1. Скачать и установить торрент-клиент [клик для Windows], (для мобильного найдите на Play Маркет).
2. Кликнуть по [Скачать]


Внимание.
Если проверка ВЫ НЕ РОБОТ - не работает, значит Вы используете устаревший браузер.
Установите актуальный браузер и повторно кликните по [Скачать]
Безопасность: торрент-клиент разрешён АВ Касперского.

[asmlocator.ru].t473316.torrent 
Торрент: Зарегистрирован [ 2017-12-20 12:35 ] · 658D172DA6911A0C2C192186F3B75F85C7DD56CF

Скачать .torrent

Скачать

13 KB

Статус: проверено
Скачан: 1 раз
Размер: 307 MB
terms.php
[Профиль] [ЛС]
Показать сообщения:    
Ответить на тему

Текущее время: 21-Окт 14:10

Часовой пояс: UTC ± 0



Вы не можете начинать темы
Вы не можете отвечать на сообщения
Вы не можете редактировать свои сообщения
Вы не можете удалять свои сообщения
Вы не можете голосовать в опросах
Вы не можете прикреплять файлы к сообщениям
Вы можете скачивать файлы
Верим фактам, а не вранью Путина! Факт, что Правительство ведёт Россию к истреблению.
Так как численность населения падает, даже не смотря на приток эмигрантов!
Русская нация вымирает и вырождается, смешиваясь с эмигрантами!
Факт, что военных и граждан предприятий заставляют голосовать за партию Единая Россия и Путина
ПОД СТРАХОМ УВОЛЬНЕНИЯ!
Нам не нужно Правительство, блокирующее личную жизнь, интернет, нарушающее сохранность данных.
Все эти действия финансируются за счёт народа!