Тайная жизнь Кайла / The secret life of Kyle (Бруно Шоффард / Bruno Chauffard, Гленн МакКой / Glenn McCoy) [2017, США, мультфильм, короткометражка, комедия, BDRemux 1080p] DUB + ENG + SUB (rus, eng)

Ответить на тему
Статистика раздачи
Размер:  620 MB   |    Зарегистрирован:  2 года 1 месяц   |    Скачан:  0 раз

Полного источника не было: 11 месяцев 7 дней

 
   
 
 
Автор Сообщение

star21 ®

Пол: Женский

Стаж: 4 года 2 месяца

Сообщений: 551946

Откуда: Екатеринбург

Создавать темы 19-Дек-2017 18:45

[Цитировать]

Тайная жизнь Кайла
The secret life of Kyle
Год выпуска: 2017
Страна: США
Жанр: мультфильм, короткометражка, комедия, семейный
Продолжительность: 00:04:13
Перевод: Профессиональный (Дублированный)
русские субтитры: естьРежиссёр: Бруно Шоффард : Bruno Chauffard, Гленн МакКой : Glenn McCoyРоли озвучивали: Миранда Косгров, Пьер Коффан, Дэна Гайер, Нев Шаррел, Брайан Т. Делани, Тара СтронгОписание: Кайл влюбился... [imdb]http://www.imdb.com/title/tt7411374[/imdb] релиз: Работа с Remux'ом -Azureus-Качество: BDRemux 1080p |Исходник: Blu-ray disc|
Формат: MKV
Видео кодек: AVC
Аудио кодек: DTS, DTS Hi-Res
Видео: 1920x1080, 23,976 fps, ~17,7 Мbps avg, 0.357 bit/pixel
Аудио #1: [RUS] DTS, 5.1 channels, 768kbps, 48kHz
Аудио #2: [ENG] DTS Hi-Res, 7.1 channels, 2046kbps, 48kHz (core: DTS, 5.1 channels, 1509kbps, 48kHz)
субтитры: русские, английские

MediaInfo

Общее
Уникальный идентификатор : 195247919733635380846763558615402907329 (0x92E361AB41ECE4F69372FF81E93F86C1)
Полное имя : D:\Mult\The secret life of Kyle\The secret life of Kyle.2017.BDRemux 1080p.mkv
Формат : Matroska
Версия формата : Version 4 / Version 2
Размер файла : 620 Мбайт
Продолжительность : 4 м. 13 с.
Режим общего битрейта : Переменный
Общий поток : 20,6 Мбит/сек
Название фильма : The secret life of Kyle.2017.BDRemux 1080p -Azureus-
Дата кодирования : UTC 2017-11-03 06:52:23
Программа кодирования : mkvmerge v13.0.0 ('The Juggler') 64bit
Библиотека кодирования : libebml v1.3.4 + libmatroska v1.4.5Видео
Идентификатор : 1
Формат : AVC
Формат/Информация : Advanced Video Codec
Профиль формата : High@L4.1
Настройки формата : CABAC / 4 Ref Frames
Параметр CABAC формата : Да
Параметр RefFrames формата : 4 кадра
Идентификатор кодека : V_MPEG4/ISO/AVC
Продолжительность : 4 м. 13 с.
Вид битрейта : Переменный
Битрейт : 17,7 Мбит/сек
Максимальный битрейт : 35,0 Мбит/сек
Ширина : 1920 пикселей
Высота : 1080 пикселей
Соотношение сторон : 16:9
Режим частоты кадров : Постоянный
Частота кадров : 23,976 (24000/1001) кадра/сек
Цветовое пространство : YUV
Субдискретизация насыщенности : 4:2:0
Битовая глубина : 8 бит
Тип развёртки : Прогрессивная
Бит/(Пиксели*Кадры) : 0.357
Размер потока : 535 Мбайт (86%)
Язык : English
Default : Да
Forced : НетАудио #1
Идентификатор : 2
Формат : DTS
Формат/Информация : Digital Theater Systems
Режим : 16
Параметр Endianness формата : Big
Идентификатор кодека : A_DTS
Продолжительность : 4 м. 13 с.
Вид битрейта : Постоянный
Битрейт : 768 Кбит/сек
Каналы : 6 каналов
Расположение каналов : Front: L C R, Side: L R, LFE
Частота : 48,0 КГц
Частота кадров : 93,750 кадра/сек (512 SPF)
Битовая глубина : 24 бит
Метод сжатия : С потерями
Размер потока : 23,2 Мбайт (4%)
Заголовок : DUB
Язык : Russian
Default : Да
Forced : НетАудио #2
Идентификатор : 3
Формат : DTS
Формат/Информация : Digital Theater Systems
Профиль формата : HRA / Core
Режим : 16
Параметр Endianness формата : Big
Идентификатор кодека : A_DTS
Продолжительность : 4 м. 13 с.
Вид битрейта : Постоянный
Битрейт : 2046 Кбит/сек / 1509 Кбит/сек
Каналы : 8 каналов / 6 каналов
Расположение каналов : Front: L C R, Side: L R, Back: L R, LFE / Front: L C R, Side: L R, LFE
Частота : 48,0 КГц
Частота кадров : 93,750 кадра/сек (512 SPF)
Битовая глубина : 24 бит
Метод сжатия : С потерями
Размер потока : 61,8 Мбайт (10%)
Заголовок : ENG
Язык : English
Default : Нет
Forced : НетТекст #1
Идентификатор : 4
Формат : UTF-8
Идентификатор кодека : S_TEXT/UTF8
Идентификатор кодека/Информация : UTF-8 Plain Text
Продолжительность : 4 м. 3 с.
Битрейт : 19 бит/сек
ElementCount : 18
Размер потока : 592 байт (0%)
Заголовок : Rus Sub
Язык : Russian
Default : Нет
Forced : НетТекст #2
Идентификатор : 5
Формат : UTF-8
Идентификатор кодека : S_TEXT/UTF8
Идентификатор кодека/Информация : UTF-8 Plain Text
Продолжительность : 3 м. 37 с.
Битрейт : 29 бит/сек
ElementCount : 48
Размер потока : 800 байт (0%)
Заголовок : Eng Sub
Язык : English
Default : Нет
Forced : Нет

Чтобы скачать этот контент, Вам необходимо:
1. Скачать и установить торрент-клиент [клик для Windows], (для мобильного найдите на Play Маркет).
2. Кликнуть по [Скачать]


Внимание.
Если проверка ВЫ НЕ РОБОТ - не работает, значит Вы используете устаревший браузер.
Установите актуальный браузер и повторно кликните по [Скачать]
Безопасность: торрент-клиент разрешён АВ Касперского.

[asmlocator.ru].t472558.torrent 
Торрент: Зарегистрирован [ 2017-12-19 18:45 ] · 0A6EE574A014D246D84A6174C80B46A1A6A3A582

Скачать .torrent

Скачать

13 KB

Статус: проверено
Скачан: 0 раз
Размер: 620 MB
terms.php
[Профиль] [ЛС]
Показать сообщения:    
Ответить на тему

Текущее время: 29-Янв 19:15

Часовой пояс: UTC ± 0



Вы не можете начинать темы
Вы не можете отвечать на сообщения
Вы не можете редактировать свои сообщения
Вы не можете удалять свои сообщения
Вы не можете голосовать в опросах
Вы не можете прикреплять файлы к сообщениям
Вы можете скачивать файлы
Верим фактам, а не вранью Путина! Факт, что Правительство ведёт Россию к истреблению.
Так как численность населения падает, даже не смотря на приток эмигрантов!
Русская нация вымирает и вырождается, смешиваясь с эмигрантами!
Факт, что военных и граждан предприятий заставляют голосовать за партию Единая Россия и Путина
ПОД СТРАХОМ УВОЛЬНЕНИЯ!
Нам не нужно Правительство, блокирующее личную жизнь, интернет, нарушающее сохранность данных.
Все эти действия финансируются за счёт народа!