(Soviet Military Songs) [CDR] VA - Песни о Войне - 2015, FLAC (image+.cue), lossless

Ответить на тему
Статистика раздачи
Размер:  355 MB   |    Зарегистрирован:  1 год 11 месяцев   |    Скачан:  4 раза

Полного источника не было: 17 минут

 
   
 
 
Автор Сообщение

star21 ®

Пол: Женский

Стаж: 4 года

Сообщений: 551946

Откуда: Екатеринбург

Создавать темы 18-Дек-2017 16:25

[Цитировать]

Песни о Войне Жанр: Soviet Military Songs
Носитель: CDR
Страна-производитель диска (релиза): Russia
Год издания: 2015
Издатель (лейбл): n/a
Номер по каталогу: n/a
Страна исполнителя (группы): USSR
Аудиокодек: FLAC (*.flac)
Тип рипа: image+.cue
Битрейт аудио: lossless
Продолжительность: 70:10
Источник (релизер): kpnemo ru
Наличие сканов в содержимом раздачи: да
Треклист:
01. Темная Ночь - /Марк Бернес/ (3:23)
02. На Безымянной Высоте - /Лев Барашков/ (3:47)
03. Бери Шинель, Пошли Домой - /Борис Иванов/ (4:29)
04. Журавли - /Марк Бернес/ (4:14)
05. Враги Сожгли Родную Хату - /Марк Бернес/ (3:06)
06. В Землянке - /Владимир Трошин/ (3:06)
07. Есть Такая Война - /Анатолий Горохов/ (1:58)
08. Песня о Тишине - Владимир Трошин (2:19)
09. Он Не Вернулся Из Боя - /Владимир Высоцкий/ (3:24)
10. На Поле Танки Грохотали - /О.Борисов, В.Павлов, Ф.Одиноков/ (2:20)
11. Увела Солдат Война - /Николай Копылов/ (3:09)
12. Эх, Дороги - /Георгий Абрамов/ (3:14)
13. Туман - /Станислав Пожлаков/ (2:55)
14. Усталая Подлодка - /Юрий Гуляев/ (3:24)
15. Прощайте, Скалистые Горы - /Николай Кондратюк/ (3:07)
16. Давно Мы Дома Не Были - /В.Бунчиков, В.Нечаев/ (2:32)
17. Махнём Не Глядя - /Павел Кравецкий/ (2:46)
18. Смуглянка - /2-я «Поющая» эскадрилья/ (2:07)
19. Последний День Войны - /Павел Кравецкий/ (3:11)
20. На Всю Оставшуюся Жизнь - /Т.Калинченко и П. Кравецкий/ (3:20)
21. От Героев Былых Времён - /Владимир Златоустовский/ (2:48)
22. Последний Бой - /Михаил Ножкин/ (2:41)
23. Мгновения - /Иосиф Кобзон/ (2:50)

Лог создания рипа

Exact Audio Copy V0.99 prebeta 5 from 4. May 2009EAC extraction logfile from 30. October 2017, 18:38Various / Песни о ВойнеUsed drive  : HL-DT-STDVD-RAM GH22NP20   Adapter: 1  ID: 0Read mode               : SecureUtilize accurate stream : YesDefeat audio cache      : YesMake use of C2 pointers : NoRead offset correction                      : 102Overread into Lead-In and Lead-Out          : NoFill up missing offset samples with silence : YesDelete leading and trailing silent blocks   : NoNull samples used in CRC calculations       : YesUsed interface                              : Native Win32 interface for Win NT & 2000Used output format : Internal WAV RoutinesSample format      : 44.100 Hz; 16 Bit; StereoTOC of the extracted CD     Track |   Start  |  Length  | Start sector | End sector    ---------------------------------------------------------        1  |  0:00.00 |  3:23.00 |         0    |    15224        2  |  3:23.00 |  3:47.31 |     15225    |    32280        3  |  7:10.31 |  4:29.00 |     32281    |    52455        4  | 11:39.31 |  4:13.73 |     52456    |    71503        5  | 15:53.29 |  3:06.37 |     71504    |    85490        6  | 18:59.66 |  3:05.72 |     85491    |    99437        7  | 22:05.63 |  1:57.31 |     99438    |   108243        8  | 24:03.19 |  2:19.32 |    108244    |   118700        9  | 26:22.51 |  3:23.44 |    118701    |   133969       10  | 29:46.20 |  2:20.50 |    133970    |   144519       11  | 32:06.70 |  3:08.07 |    144520    |   158626       12  | 35:15.02 |  3:14.72 |    158627    |   173248       13  | 38:29.74 |  2:54.68 |    173249    |   186366       14  | 41:24.67 |  3:23.37 |    186367    |   201628       15  | 44:48.29 |  3:07.00 |    201629    |   215653       16  | 47:55.29 |  2:32.38 |    215654    |   227091       17  | 50:27.67 |  2:45.13 |    227092    |   239479       18  | 53:13.05 |  2:07.25 |    239480    |   249029       19  | 55:20.30 |  3:11.01 |    249030    |   263355       20  | 58:31.31 |  3:19.49 |    263356    |   278329       21  | 61:51.05 |  2:48.00 |    278330    |   290929       22  | 64:39.05 |  2:41.00 |    290930    |   303004       23  | 67:20.05 |  2:50.00 |    303005    |   315754Range status and errorsSelected range     Filename F:\extract\Various - Песни о Войне.wav     Peak level 96.3 %     Range quality 100.0 %     Test CRC 63615D7E     Copy CRC 63615D7E     Copy OKNo errors occurredEnd of status report

Содержание индексной карты (.CUE)

REM GENRE BalladREM DATE 2015REM DISCID 3F107217REM COMMENT "ExactAudioCopy v0.99pb5"PERFORMER "Various"TITLE "Песни о Войне"FILE "Various - Песни о Войне.flac" WAVE  TRACK 01 AUDIO    TITLE "Темная Ночь - Марк Бернес"    PERFORMER "Темная Ночь - Марк Бернес"    INDEX 01 00:00:00  TRACK 02 AUDIO    TITLE "На Безымянной Высоте - Лев Барашков"    PERFORMER "На Безымянной Высоте - Лев Барашков"    INDEX 01 03:23:00  TRACK 03 AUDIO    TITLE "Бери Шинель, Пошли Домой - Борис Иванов"    PERFORMER "Бери Шинель, Пошли Домой - Борис Иванов"    INDEX 01 07:10:31  TRACK 04 AUDIO    TITLE "Журавли - Марк Бернес"    PERFORMER "Журавли - Марк Бернес"    INDEX 01 11:39:31  TRACK 05 AUDIO    TITLE "Враги Сожгли Родную Хату - Марк Бернес"    PERFORMER "Враги Сожгли Родную Хату - Марк Бернес"    INDEX 01 15:53:29  TRACK 06 AUDIO    TITLE "В Землянке - Владимир Трошин"    PERFORMER "В Землянке - Владимир Трошин"    INDEX 01 18:59:66  TRACK 07 AUDIO    TITLE "Есть Такая Война - Анатолий Горохов"    PERFORMER "Есть Такая Война - Анатолий Горохов"    INDEX 01 22:05:63  TRACK 08 AUDIO    TITLE "Песня о Тишине - Владимир Трошин"    PERFORMER "Песня о Тишине - Владимир Трошин"    INDEX 01 24:03:19  TRACK 09 AUDIO    TITLE "Он Не Вернулся Из Боя - Владимир Высоцкий"    PERFORMER "Он Не Вернулся Из Боя - Владимир Высоцкий"    INDEX 01 26:22:51  TRACK 10 AUDIO    TITLE "На Поле Танки Грохотали - О.Борисов, В.Павлов, Ф.Одиноков"    PERFORMER "На Поле Танки Грохотали - О.Борисов, В.Павлов, Ф.Одиноков"    INDEX 01 29:46:20  TRACK 11 AUDIO    TITLE "Увела Солдат Война - Николай Копылов"    PERFORMER "Увела Солдат Война - Николай Копылов"    INDEX 01 32:06:70  TRACK 12 AUDIO    TITLE "Эх, Дороги - Георгий Абрамов"    PERFORMER "Эх, Дороги - Георгий Абрамов"    INDEX 01 35:15:02  TRACK 13 AUDIO    TITLE "Туман - Станислав Пожлаков"    PERFORMER "Туман - Станислав Пожлаков"    INDEX 01 38:29:74  TRACK 14 AUDIO    TITLE "Усталая Подлодка - Юрий Гуляев"    PERFORMER "Усталая Подлодка - Юрий Гуляев"    INDEX 01 41:24:67  TRACK 15 AUDIO    TITLE "Прощайте, Скалистые Горы - Николай Кондратюк"    PERFORMER "Прощайте, Скалистые Горы - Николай Кондратюк"    INDEX 01 44:48:29  TRACK 16 AUDIO    TITLE "Давно Мы Дома Не Были - В.Бунчиков, В.Нечаев"    PERFORMER "Давно Мы Дома Не Были - В.Бунчиков, В.Нечаев"    INDEX 01 47:55:29  TRACK 17 AUDIO    TITLE "Махнём Не Глядя - Павел Кравецкий"    PERFORMER "Махнём Не Глядя - Павел Кравецкий"    INDEX 01 50:27:67  TRACK 18 AUDIO    TITLE "Смуглянка - 2-я «Поющая» эскадрилья"    PERFORMER "Смуглянка - 2-я «Поющая» эскадрилья"    INDEX 01 53:13:05  TRACK 19 AUDIO    TITLE "Последний День Войны - Павел Кравецкий"    PERFORMER "Последний День Войны - Павел Кравецкий"    INDEX 01 55:20:30  TRACK 20 AUDIO    TITLE "На Всю Оставшуюся Жизнь - Т.Калинченко и П. Кравецкий"    PERFORMER "На Всю Оставшуюся Жизнь - Т.Калинченко и П. Кравецкий"    INDEX 01 58:31:31  TRACK 21 AUDIO    TITLE "От Героев Былых Времён - Владимир Златоустовский"    PERFORMER "От Героев Былых Времён - Владимир Златоустовский"    INDEX 01 61:51:05  TRACK 22 AUDIO    TITLE "Последний Бой - Михаил Ножкин"    PERFORMER "Последний Бой - Михаил Ножкин"    INDEX 01 64:39:05  TRACK 23 AUDIO    TITLE "Мгновения - Иосиф Кобзон"    PERFORMER "Мгновения - Иосиф Кобзон"    INDEX 01 67:20:05

Лог проверки качества

-----------------------DON'T MODIFY THIS FILE-----------------------PERFORMER: auCDtect Task Manager, ver. 1.5.1RC6 build 1.5.1.7Copyright (c) 2008-2010 y-soft. All rights reservedhttp://y-soft.orgANALYZER: auCDtect: CD records authenticity detector, version 0.8.2Copyright (c) 2004 Oleg Berngardt. All rights reserved.Copyright (c) 2004 Alexander Djourik. All rights reserved.FILE: Песни о Войне (2015).wav  Size: 742655804 Hash: 41583046271D36EF9BEBBC0AA40B19F5 Accuracy: -m0  Conclusion: CDDA 100%  Signature: 49BA4625FB215C2428957E69ED8A8EC969F41271

Скриншот спектра частот

Доп. информация: Песни о войне. Из кинофильмов, из жизни. 70-летию Победы посвящается.

Об исполнителе (группе)

Разные

Об альбоме (сборнике)

Песни о войне. Из кинофильмов, из жизни. 70-летию Победы посвящается.

Состав

Разные

Чтобы скачать этот контент, Вам необходимо:
1. Скачать и установить торрент-клиент [клик для Windows], (для мобильного найдите на Play Маркет).
2. Кликнуть по [Скачать]


Внимание.
Если проверка ВЫ НЕ РОБОТ - не работает, значит Вы используете устаревший браузер.
Установите актуальный браузер и повторно кликните по [Скачать]
Безопасность: торрент-клиент разрешён АВ Касперского.

[asmlocator.ru].t471353.torrent 
Торрент: Зарегистрирован [ 2017-12-18 16:25 ] · A10FFEA5194AFDCCCEFEFAFE745BEED68748FBCC

Скачать .torrent

Скачать

15 KB

Статус: проверено
Скачан: 4 раз
Размер: 355 MB
terms.php
[Профиль] [ЛС]
Показать сообщения:    
Ответить на тему

Текущее время: 23-Ноя 02:47

Часовой пояс: UTC ± 0



Вы не можете начинать темы
Вы не можете отвечать на сообщения
Вы не можете редактировать свои сообщения
Вы не можете удалять свои сообщения
Вы не можете голосовать в опросах
Вы не можете прикреплять файлы к сообщениям
Вы можете скачивать файлы
Верим фактам, а не вранью Путина! Факт, что Правительство ведёт Россию к истреблению.
Так как численность населения падает, даже не смотря на приток эмигрантов!
Русская нация вымирает и вырождается, смешиваясь с эмигрантами!
Факт, что военных и граждан предприятий заставляют голосовать за партию Единая Россия и Путина
ПОД СТРАХОМ УВОЛЬНЕНИЯ!
Нам не нужно Правительство, блокирующее личную жизнь, интернет, нарушающее сохранность данных.
Все эти действия финансируются за счёт народа!