Первый канал (ТВ) / A Channel: The Animation (Оно Манабу) [TV+Special] [12+11 из 12+11] [без хардсаба] [RUS(ext), JAP+SUB] [2011, комедия, повседневность, BDRemux] [1080p]

Ответить на тему
Статистика раздачи
Размер:  58,4 GB   |    Зарегистрирован:  6 дней   |    Скачан:  0 раз

Полного источника не было: Никогда

 
   
 
 
Автор Сообщение

star21 ®

Пол: Не указан

Стаж: 2 года 1 месяц

Сообщений: 354215

Создавать темы 07-Дек-2017 10:41

[Цитировать]

Первый канал / A Channel: The Animation Год выпуска: 2011
Страна: Япония
Жанр: комедия, повседневность
Тип: TV+Special
Продолжительность: 12 эп. по 24 мин., 11 спешалов по 5 мин.
Озвучка:
  • Одноголосая (жен) от Miko (Opendub) эп. 1-12
  • Одноголосая (муж) от Inspector Gadjet (AniDub)
  • Двухголосая (муж/жен) от Lupin & Say (Animedia) эп. 1-12
    Русские субтитры: есть (отдельным файлом, формат .ass)
    Перевод:
  • chainsaws, Nerevar, nismo, Triffid [Advantage] эп. 1-12, спешалы 1-4
  • InFar, Bel-chan, Tany Sword [Dreamers Team]
    Хардсаб: НетРежиссер: Оно Манабу
    Студия: Studio GokumiОписание: В средней школе Рун и Тору были почти неразлучны, но разница в один класс привела к тому, что, с поступлением Рун в старшую школу, они практически расстались на целый год. Веселая и непосредственная Рун не скучала, а целеустремленная малышка Тору, сжав зубы, готовилась к экзаменам, чтобы попасть в ту же школу Аойгаока. Наконец, счастливая младшая подруга прибежала к старшей домой, чтобы сообщить радостную новость – и застала в комнате Рун двух совершенно незнакомых девушек. Это еще что, но чем одна из них занималась с хозяйкой комнаты на кровати?!Так и выяснилось, что в новой школе Рун крепко подружилась с высокой, эффектной Юко и очкастой умницей Наги. Только места в сердце хватит всем – такова женская мудрость, которой не учат в школе, зато у собравшихся ее достаточно. Можно быть неуклюжей, не блистать в науках, витать в облаках – но нельзя бросать тех, кто тебе дорог. Рун обозначила идею, Юко и Наги ее поддержали и затянули неулыбчивую Тору в свой круг – в итоге дружная компания медленно, но верно разрослась до четырех девчонок, за жизнью и приключениями которых мы будем теперь следить на экране. Воистину, весенний сезон богат историями о прекрасной повседневности!
    © Hollow, World ArtКачество: Blu-Ray Remux
    Формат: MKV
    Видео кодек: AVC
    Аудио кодек: FLAC
    Видео: 1920x1080 (16:9) 23,976 fps ~18,7 Mbps 8bit
    Аудио:
    Jap FLAC, 48000Hz, ~1520 Kbps, 2ch
    RUS 1-3 (ext) AAC, 48000Hz, ~192 Kbps, 2chСубтитры и озвучка взяты из этой раздачи.
    Чаптеры присутствуют.

Список эпизодов

01. Любовь апрельским днем
02. Ванна в дождливый день
03. Одноклассники
04. Килограмм
05. Море
06. Сон в летнюю ночь
07. Летний фестиваль
08. Новый триместр
09. Подарок
10. Углекислота
11. День рождения
12. ПришелецSP.01 Форма
SP.02 Не-е-ет!
SP.03 Участие
SP.04 Вот она
SP.05 Покажи
SP.06 Разведка
SP.07 Только сегодня
SP.08 Она уже тут
SP.09 Испуг
SP.10 Гендзо-сан
SP.11 Бенто с характером

MediaInfo

Общее
Уникальный идентификатор : 190454663199944392874406105038662075912 (0x8F483BE03F5E94B0BB27A599B35B0608)
Полное имя : Z:\Anime Release - working\A Channel TV\[anti-raws]A-Channel The Animation ep.01[BDRemux].mkv
Формат : Matroska
Версия формата : Version 4 / Version 2
Размер файла : 3,53 Гбайт
Продолжительность : 24 м. 27 с.
Режим общего битрейта : Переменный
Общий поток : 20,6 Мбит/сек
Дата кодирования : UTC 2017-10-03 22:24:47
Программа кодирования : mkvmerge v16.0.0 ('Protest') 64-bit
Библиотека кодирования : libebml v1.3.5 + libmatroska v1.4.8Видео
Идентификатор : 2
Формат : AVC
Формат/Информация : Advanced Video Codec
Профиль формата : High@L4.1
Параметр CABAC формата : Да
Параметр ReFrames формата : 2 кадра
Параметр GOP формата : M=1, N=10
Идентификатор кодека : V_MPEG4/ISO/AVC
Продолжительность : 24 м. 27 с.
Вид битрейта : Переменный
Битрейт : 19,1 Мбит/сек
Ширина : 1920 пикселей
Высота : 1080 пикселей
Соотношение сторон : 16:9
Режим частоты кадров : Постоянный
Частота кадров : 23,976 (24000/1001) кадра/сек
Цветовое пространство : YUV
Субдискретизация насыщенности : 4:2:0
Битовая глубина : 8 бит
Тип развёртки : Прогрессивная
Бит/(Пиксели*Кадры) : 0.385
Размер потока : 3,27 Гбайт (93%)
Default : Нет
Forced : НетАудио
Идентификатор : 1
Формат : FLAC
Формат/Информация : Free Lossless Audio Codec
Идентификатор кодека : A_FLAC
Продолжительность : 24 м. 27 с.
Вид битрейта : Переменный
Битрейт : 1520 Кбит/сек
Каналы : 2 канала
Расположение каналов : Front: L R
Частота : 48,0 КГц
Частота кадров : 11,719 кадров/сек (4096 spf)
Битовая глубина : 24 бит
Размер потока : 266 Мбайт (7%)
Библиотека кодирования : libFLAC 1.2.1 (UTC 2007-09-17)
Язык : Japanese
Default : Да
Forced : НетМеню
00:00:00.000 : en:00:00:00.000
00:01:50.027 : en:00:01:50.027
00:03:19.991 : en:00:03:19.991
00:10:44.060 : en:00:10:44.060
00:22:26.053 : en:00:22:26.053
00:23:56.060 : en:00:23:56.060

Скриншоты

Для скачки контента: [Установить программу-клиент] и кликнуть по - Скачать

[asmlocator.ru].t460352.torrent 
Торрент: Зарегистрирован [ 2017-12-07 10:40 ] · 3A336CD7AA37CFE6D18EF1E62CC88AEA3E79CA9F

Скачать .torrent

Скачать

91 KB

Статус: проверено
Скачан: 0 раз
Размер: 58,4 GB
terms.php
[Профиль] [ЛС]
Показать сообщения:    
Ответить на тему

Текущее время: 13-Дек 19:01

Часовой пояс: UTC ± 0



Вы не можете начинать темы
Вы не можете отвечать на сообщения
Вы не можете редактировать свои сообщения
Вы не можете удалять свои сообщения
Вы не можете голосовать в опросах
Вы не можете прикреплять файлы к сообщениям
Вы можете скачивать файлы