My Little Pony в кино / My Little Pony: The Movie (Джейсон Тиссен / Jayson Thiessen) [2017, мультфильм, мюзикл, фэнтези, комедия, приключения, семейный, HDRip 1080p] Subs (Rus, Eng)

Ответить на тему
Статистика раздачи
Размер:  6,1 GB   |    Зарегистрирован:  6 дней   |    Скачан:  0 раз

Полного источника не было: Никогда

 
   
 
 
Автор Сообщение

star21 ®

Пол: Не указан

Стаж: 2 года 1 месяц

Сообщений: 354215

Создавать темы 07-Дек-2017 10:41

[Цитировать]

My Little Pony в кино / My Little Pony: The Movie Страна: Канада, США
Жанр: Мультфильм, мюзикл, фэнтези, комедия, приключения, семейный
Продолжительность: 01:39:23
Год выпуска: 2017
Перевод 1: Профессиональный (дублированный) (Централ Партнершип) (чистый звук)
Перевод 2: Любительский (двухголосый закадровый) (студия Колобок) (DeadSno & den904)
Перевод 3: Одноголосый закадровый (Pony_Stark)
Русские субтитры: естьРежиссер: Джейсон Тиссен / Jayson Thiessen
Роли озвучивали: Тара Стронг, Эшли Болл, Андреа Либман, Табита Сен-Жермен, Кэти Уэслак, Эмили Блант, Кристин Ченоуэт, Лив Шрайбер, Майкл Пенья, Сиа и другиеОписание: Шестерка любимых героев - Эпплджек, Сумеречная Искорка, Флаттершай, Пинки Пай, Рарити и Радуга Дэш - теперь на большом экране! Король Шторм хочет лишить пони магии и захватывает Кантерлот. Под угрозой будущее всей Эквестрии! Чтобы остановить злодея, пони покидают родные края и отправляются в путешествие, полное чудес и опасностей. Им предстоит покорить волшебные горы, погрузиться в подводные миры и даже оказаться на летучем пиратском корабле! Предыдущие и альтернативные раздачи
Рейтинг: [imdb]http://www.imdb.com/title/tt4131800[/imdb] Качество: HDRip 1080p (рип с DNxHD_175x_129GB)
Формат: MKV
Видео: AVC, 1920x804 (24:10), 24 fps, ~6249 kbps
Аудио 1 Rus: AC3, 48 kHz, 2 ch, 192 kbps (Dub line)
Аудио 2 Rus: AC3, 48 kHz, 2 ch, 192 kbps (Колобок)
Аудио 3 Rus: AC3, 48 kHz, 6 ch, 640 kbps (Pony_Stark)
Аудио 4 Eng: DTS, 48 kHz, 6 ch, 1510 kbps (Original)
Субтитры 1 Rus: (Anon2Anon)
Субтитры 2 Rus: (TheDoctor Team)
Субтитры 3 Rus: (Anatoly136UA) (песни)
Субтитры 4 Rus: (Anatoly136UA)
Субтитры 5 Eng: (Anon2Anon)

Скриншоты

Русский дубляж

Лина Иванова - Сумеречная Искорка
Татьяна Весёлкина - Радуга Дэш
Ольга Шорохова - Пинки Пай
Елена Ивасишина - Рарити, Принцесса Селестия
Анна Киселёва - Эпплджек
Элиза Мартиросова - Флаттершай, Принцесса Небесная Звезда
Антон Колесников - Спайк
Ирина Савина - Принцесса Луна, Королева Нова
Жанна Фетисова - Принцесса Каденс
Александр Новиков - Король Шторм
Пётр Иващенко - Грубер
Рамиля Искандер - Капитан Гарпия, Серенада
Полина Гагарина - Буря
Сергей Лазарев - Хитрый Хвост
В других ролях: Олег Новиков, Михаил Белякович, Денис Строев, Денис Кутузов
Мультфильм дублирован на студии "CineLab SoundMix" по заказу компании "Централ Партнершип"
Режиссёр дубляжа - Александр Новиков
Переводчик - Дмитрий Шамшин

Дополнительная информация

В этой раздаче находится x264-рип с недавно утекшего в интернет высококачественнейшего исходника DNxHD 175x 129GB (круче чем BDRemux) с чистым дубляжом из релиза Koshara без рекламы. Отдельная благодарность Anon2Anon, TheDoctor Team и Anatoly136UA за субтитры, а премьера в кинотеатрах в профессиональном дубляже состоялась 12 октября. В двухголосой закадровой озвучке студии Колобок (DeadSno & den904) все песни не озвучены, рекламы нет. Шестиканальная озвучка Pony_Stark без песен выполнена на основе субтитров Anatoly136UA.

Подробные технические данные

ОбщееУникальный идентификатор                 : 187736857368030783021906675667424975675 (0x8D3CCDB3F274170DB36663AE7FEF1B3B)Полное имя                               : D:\Video\Mults\my.little.pony.the.movie.2017.x264.1080p.mkvФормат                                   : MatroskaВерсия формата                           : Version 4 / Version 2Размер файла                             : 6,10 ГбайтПродолжительность                        : 1 ч. 39 м.Общий поток                              : 8787 Кбит/секДата кодирования                         : UTC 2017-10-25 08:15:20Программа кодирования                    : mkvmerge v16.0.0 ('Protest') 64-bitБиблиотека кодирования                   : libebml v1.3.5 + libmatroska v1.4.8ВидеоИдентификатор                            : 1Формат                                   : AVCФормат/Информация                        : Advanced Video CodecПрофиль формата                          : High@L4.1Настройки формата                        : CABAC / 4 Ref FramesПараметр CABAC формата                   : ДаПараметр RefFrames формата               : 4 кадраИдентификатор кодека                     : V_MPEG4/ISO/AVCПродолжительность                        : 1 ч. 39 м.Битрейт                                  : 6249 Кбит/секШирина                                   : 1920 пикселейВысота                                   : 804 пикселяСоотношение сторон                       : 2,40:1Режим частоты кадров                     : ПостоянныйЧастота кадров                           : 24,000 кадра/секЦветовое пространство                    : YUVСубдискретизация насыщенности            : 4:2:0Битовая глубина                          : 8 битТип развёртки                            : ПрогрессивнаяБит/(Пиксели*Кадры)                      : 0.169Размер потока                            : 4,34 Гбайт (71%)Библиотека кодирования                   : x264 core 148 r2708 86b7198Настройки программы                      : cabac=1 / ref=3 / deblock=1:0:0 / analyse=0x3:0x113 / me=hex / subme=7 / psy=1 / psy_rd=1.00:0.00 / mixed_ref=1 / me_range=16 / chroma_me=1 / trellis=1 / 8x8dct=1 / cqm=0 / deadzone=21,11 / fast_pskip=1 / chroma_qp_offset=-2 / threads=12 / lookahead_threads=2 / sliced_threads=0 / nr=0 / decimate=1 / interlaced=0 / bluray_compat=0 / constrained_intra=0 / bframes=3 / b_pyramid=2 / b_adapt=1 / b_bias=0 / direct=1 / weightb=1 / open_gop=0 / weightp=2 / keyint=240 / keyint_min=24 / scenecut=40 / intra_refresh=0 / rc_lookahead=40 / rc=crf / mbtree=1 / crf=14.0 / qcomp=0.60 / qpmin=0 / qpmax=69 / qpstep=4 / vbv_maxrate=62500 / vbv_bufsize=78125 / crf_max=0.0 / nal_hrd=none / filler=0 / ip_ratio=1.40 / aq=1:1.00Язык                                     : EnglishDefault                                  : ДаForced                                   : НетЦветовой диапазон                        : LimitedОсновные цвета                           : BT.709Характеристики трансфера                 : BT.709Коэффициенты матрицы                     : BT.709Аудио #1Идентификатор                            : 2Формат                                   : AC-3Формат/Информация                        : Audio Coding 3Параметр Endianness формата              : BigИдентификатор кодека                     : A_AC3Продолжительность                        : 1 ч. 39 м.Вид битрейта                             : ПостоянныйБитрейт                                  : 192 Кбит/секКаналы                                   : 2 каналаРасположение каналов                     : Front: L RЧастота                                  : 48,0 КГцЧастота кадров                           : 31,250 кадров/сек (1536 SPF)Битовая глубина                          : 16 битМетод сжатия                             : С потерямиРазмер потока                            : 136 Мбайт (2%)Заголовок                                : Dub lineЯзык                                     : RussianServiceKind/String                       : Complete MainDefault                                  : ДаForced                                   : НетАудио #2Идентификатор                            : 3Формат                                   : AC-3Формат/Информация                        : Audio Coding 3Параметр Endianness формата              : BigИдентификатор кодека                     : A_AC3Продолжительность                        : 1 ч. 39 м.Вид битрейта                             : ПостоянныйБитрейт                                  : 192 Кбит/секКаналы                                   : 2 каналаРасположение каналов                     : Front: L RЧастота                                  : 48,0 КГцЧастота кадров                           : 31,250 кадров/сек (1536 SPF)Битовая глубина                          : 16 битМетод сжатия                             : С потерямиРазмер потока                            : 136 Мбайт (2%)Заголовок                                : КолобокЯзык                                     : RussianServiceKind/String                       : Complete MainDefault                                  : НетForced                                   : НетАудио #3Идентификатор                            : 4Формат                                   : AC-3Формат/Информация                        : Audio Coding 3Параметр Endianness формата              : BigИдентификатор кодека                     : A_AC3Продолжительность                        : 1 ч. 39 м.Вид битрейта                             : ПостоянныйБитрейт                                  : 640 Кбит/секКаналы                                   : 6 каналовРасположение каналов                     : Front: L C R, Side: L R, LFEЧастота                                  : 48,0 КГцЧастота кадров                           : 31,250 кадров/сек (1536 SPF)Битовая глубина                          : 16 битМетод сжатия                             : С потерямиРазмер потока                            : 455 Мбайт (7%)Заголовок                                : Pony_StarkЯзык                                     : RussianServiceKind/String                       : Complete MainDefault                                  : НетForced                                   : НетАудио #4Идентификатор                            : 5Формат                                   : DTSФормат/Информация                        : Digital Theater SystemsРежим                                    : 16Параметр Endianness формата              : BigИдентификатор кодека                     : A_DTSПродолжительность                        : 1 ч. 39 м.Вид битрейта                             : ПостоянныйБитрейт                                  : 1510 Кбит/секКаналы                                   : 6 каналовРасположение каналов                     : Front: L C R, Side: L R, LFEЧастота                                  : 48,0 КГцЧастота кадров                           : 93,750 кадра/сек (512 SPF)Битовая глубина                          : 24 битМетод сжатия                             : С потерямиРазмер потока                            : 1,05 Гбайт (17%)Заголовок                                : OriginalЯзык                                     : EnglishDefault                                  : НетForced                                   : НетТекст #1Идентификатор                            : 6Формат                                   : ASSИдентификатор кодека                     : S_TEXT/ASSИдентификатор кодека/Информация          : Advanced Sub Station AlphaПродолжительность                        : 1 ч. 34 м.Битрейт                                  : 145 бит/секElementCount                             : 1458Метод сжатия                             : Без потерьРазмер потока                            : 100 Кбайт (0%)Заголовок                                : Anon2AnonЯзык                                     : RussianDefault                                  : НетForced                                   : НетТекст #2Идентификатор                            : 7Формат                                   : ASSИдентификатор кодека                     : S_TEXT/ASSИдентификатор кодека/Информация          : Advanced Sub Station AlphaПродолжительность                        : 1 ч. 32 м.Битрейт                                  : 159 бит/секElementCount                             : 1344Метод сжатия                             : Без потерьРазмер потока                            : 108 Кбайт (0%)Заголовок                                : TheDoctor TeamЯзык                                     : RussianDefault                                  : НетForced                                   : НетТекст #3Идентификатор                            : 8Формат                                   : ASSИдентификатор кодека                     : S_TEXT/ASSИдентификатор кодека/Информация          : Advanced Sub Station AlphaПродолжительность                        : 1 ч. 34 м.Битрейт                                  : 41 бит/секElementCount                             : 178Метод сжатия                             : Без потерьРазмер потока                            : 28,5 Кбайт (0%)Заголовок                                : Anatoly136UA (песни)Язык                                     : RussianDefault                                  : НетForced                                   : НетТекст #4Идентификатор                            : 9Формат                                   : ASSИдентификатор кодека                     : S_TEXT/ASSИдентификатор кодека/Информация          : Advanced Sub Station AlphaПродолжительность                        : 1 ч. 34 м.Битрейт                                  : 170 бит/секElementCount                             : 936Метод сжатия                             : Без потерьРазмер потока                            : 117 Кбайт (0%)Заголовок                                : Anatoly136UAЯзык                                     : RussianDefault                                  : НетForced                                   : НетТекст #5Идентификатор                            : 10Формат                                   : ASSИдентификатор кодека                     : S_TEXT/ASSИдентификатор кодека/Информация          : Advanced Sub Station AlphaПродолжительность                        : 1 ч. 34 м.Битрейт                                  : 106 бит/секElementCount                             : 1438Метод сжатия                             : Без потерьРазмер потока                            : 73,4 Кбайт (0%)Заголовок                                : Anon2AnonЯзык                                     : EnglishDefault                                  : НетForced                                   : Нет

Для скачки контента: [Установить программу-клиент] и кликнуть по - Скачать

[asmlocator.ru].t460350.torrent 
Торрент: Зарегистрирован [ 2017-12-07 10:40 ] · D5C0BC799915BFED863D6D2229B482C2817C2248

Скачать .torrent

Скачать

16 KB

Статус: проверено
Скачан: 0 раз
Размер: 6,1 GB
terms.php
[Профиль] [ЛС]
Показать сообщения:    
Ответить на тему

Текущее время: 13-Дек 19:00

Часовой пояс: UTC ± 0



Вы не можете начинать темы
Вы не можете отвечать на сообщения
Вы не можете редактировать свои сообщения
Вы не можете удалять свои сообщения
Вы не можете голосовать в опросах
Вы не можете прикреплять файлы к сообщениям
Вы можете скачивать файлы