Скорпион: клетка для зверя / Female Prisoner Scorpion: Beast Stable / Joshuu sasori: Kemono-beya (Сюнья Ито / Shunya Ito) [1973, Япония, криминальная драма, боевик, BDRemux 1080p] VO (dev904) + Sub Rus, Eng + Original Jap

Ответить на тему
Статистика раздачи
Размер:  21,85 GB   |    Зарегистрирован:  6 дней   |    Скачан:  0 раз

Полного источника не было: Никогда

 
   
 
 
Автор Сообщение

star21 ®

Пол: Не указан

Стаж: 2 года 1 месяц

Сообщений: 354215

Создавать темы 07-Дек-2017 10:41

[Цитировать]

Скорпион: клетка для зверя / Female Prisoner Scorpion: Beast Stable / Joshuu sasori: Kemono-beyaКоллекционное издание. Фильм 3. Страна: Япония
Студия: Toei Company
Жанр: криминальная драма, боевик
Год выпуска: 1973
Продолжительность: 01:27:13Перевод: Одноголосый закадровый dev904
Субтитры: русские dlx1, английские
Оригинальная аудиодорожка: японскийРежиссер: Сюнья Ито / Shunya ItoВ ролях: Мэйко Кадзи, Микио Нарита, Рэйсэн Ри, Яёи Ватанабэ, Кодзи Намбара, Сэия Сато, Такаси Фудзики, Томоко Маяма, Мицуру Мори, Чие Кобаяси, Кодзи Фудзияма, Кодзи Сэкияма, Нобуо Яна, Тосиюки Цутияма, Хироши Датэ, Хатиро Тако и др.Описание: Третий фильм из серии, рассказывающей о злоключениях Нами Мацусимы — заключённой 701 по прозвищу Скорпион, — которая мстит бывшему возлюбленному за предательство.Сэмпл [imdb]http://www.imdb.com/title/tt0226875[/imdb] КинопоискФильм 1. Скорпион: заключенная №701 BDRemux 1080p
Фильм 2. Скорпион: сорок первый барак BDRemux 1080p
Фильм 4. Скорпион: песня ненависти №701 BDRemux 1080pТип релиза: BDRemux 1080p
Контейнер: MKVВидео: AVC / 1920x1080 / 16:9 / 23.976 fps / 34973 Kbps / High@L4.1
Аудио 1 Rus: AC3 / 48.0 KHz / 2.0 / 192 kbps / VO / den904
Аудио 2 Jap: FLAC / 48.0 KHz / 1.0 / 701 kbps / 24 bit
Формат субтитров: softsub (SRT)

MediaInfo

Общее
Уникальный идентификатор : 236957920416611671826405929913687292004 (0xB2446F7996106CE98270977FF6113864)
Полное имя : E:\porvaliparus\Female.Prisoner.Scorpion.The.Complete.Collection\Female.Prisoner.Scorpion.Beast.Stable.1973.BDRemux.1080p.mkv
Формат : Matroska
Версия формата : Version 4 / Version 2
Размер файла : 21,9 Гбайт
Продолжительность : 1 ч. 27 м.
Режим общего битрейта : Переменный
Общий поток : 35,9 Мбит/сек
Название фильма : Female.Prisoner.Scorpion.Beast.Stable.1973.BDRemux.1080p-porvaliparus
Дата кодирования : UTC 2017-10-07 07:38:18
Программа кодирования : mkvmerge v16.0.0 ('Protest') 64-bit
Библиотека кодирования : libebml v1.3.5 + libmatroska v1.4.8Видео
Идентификатор : 1
Формат : AVC
Формат/Информация : Advanced Video Codec
Профиль формата : High@L4.1
Настройки формата : CABAC / 3 Ref Frames
Параметр CABAC формата : Да
Параметр RefFrames формата : 3 кадра
Идентификатор кодека : V_MPEG4/ISO/AVC
Продолжительность : 1 ч. 27 м.
Вид битрейта : Переменный
Битрейт : 35,0 Мбит/сек
Максимальный битрейт : 38,0 Мбит/сек
Ширина : 1920 пикселей
Высота : 1080 пикселей
Соотношение сторон : 16:9
Режим частоты кадров : Постоянный
Частота кадров : 23,976 (24000/1001) кадра/сек
Цветовое пространство : YUV
Субдискретизация насыщенности : 4:2:0
Битовая глубина : 8 бит
Тип развёртки : Прогрессивная
Бит/(Пиксели*Кадры) : 0.704
Размер потока : 21,3 Гбайт (98%)
Заголовок : Female.Prisoner.Scorpion.Beast.Stable.1973.BDRemux.1080p
Библиотека кодирования : x264 core 128 r2216 198a7ea
Настройки программы : cabac=1 / ref=4 / deblock=0:-1:-1 / analyse=0x3:0x133 / me=umh / subme=10 / psy=1 / psy_rd=1.00:0.15 / mixed_ref=1 / me_range=24 / chroma_me=1 / trellis=2 / 8x8dct=1 / cqm=1 / deadzone=21,11 / fast_pskip=1 / chroma_qp_offset=-3 / threads=12 / lookahead_threads=2 / sliced_threads=0 / slices=4 / nr=0 / decimate=1 / interlaced=0 / bluray_compat=1 / constrained_intra=0 / bframes=3 / b_pyramid=1 / b_adapt=2 / b_bias=0 / direct=3 / weightb=1 / open_gop=1 / weightp=1 / keyint=24 / keyint_min=1 / scenecut=40 / intra_refresh=0 / rc_lookahead=24 / rc=abr / mbtree=1 / bitrate=35000 / ratetol=1.0 / qcomp=0.60 / qpmin=4 / qpmax=69 / qpstep=4 / vbv_maxrate=38000 / vbv_bufsize=28500 / nal_hrd=vbr / ip_ratio=1.40 / aq=1:1.00
Default : Да
Forced : Нет
Цветовой диапазон : Limited
Основные цвета : BT.709
Характеристики трансфера : BT.709
Коэффициенты матрицы : BT.709Аудио #1
Идентификатор : 2
Формат : AC-3
Формат/Информация : Audio Coding 3
Параметр Endianness формата : Big
Идентификатор кодека : A_AC3
Продолжительность : 1 ч. 27 м.
Вид битрейта : Постоянный
Битрейт : 192 Кбит/сек
Каналы : 2 канала
Расположение каналов : Front: L R
Частота : 48,0 КГц
Частота кадров : 31,250 кадров/сек (1536 SPF)
Битовая глубина : 16 бит
Метод сжатия : С потерями
Размер потока : 120 Мбайт (1%)
Заголовок : VO [den904]
Язык : Russian
ServiceKind/String : Complete Main
Default : Да
Forced : НетАудио #2
Идентификатор : 3
Формат : FLAC
Формат/Информация : Free Lossless Audio Codec
Идентификатор кодека : A_FLAC
Продолжительность : 1 ч. 27 м.
Вид битрейта : Переменный
Битрейт : 701 Кбит/сек
Каналы : 1 канал
Расположение каналов : Front: C
Частота : 48,0 КГц
Частота кадров : 11,719 кадров/сек (4096 SPF)
Битовая глубина : 24 бит
Размер потока : 437 Мбайт (2%)
Библиотека кодирования : libFLAC 20080709 (UTC 2008-07-09)
Язык : Japanese
Default : Нет
Forced : НетТекст #1
Идентификатор : 4
Формат : UTF-8
Идентификатор кодека : S_TEXT/UTF8
Идентификатор кодека/Информация : UTF-8 Plain Text
Продолжительность : 1 ч. 25 м.
Битрейт : 17 бит/сек
ElementCount : 245
Размер потока : 10,6 Кбайт (0%)
Заголовок : [dlx1]
Язык : Russian
Default : Нет
Forced : НетТекст #2
Идентификатор : 5
Формат : UTF-8
Идентификатор кодека : S_TEXT/UTF8
Идентификатор кодека/Информация : UTF-8 Plain Text
Продолжительность : 1 ч. 27 м.
Битрейт : 12 бит/сек
ElementCount : 258
Размер потока : 8,24 Кбайт (0%)
Язык : English
Default : Нет
Forced : НетМеню
00:00:00.000 : en:00:00:00.000
00:06:19.421 : en:00:06:19.421
00:13:18.423 : en:00:13:18.423
00:22:25.386 : en:00:22:25.386
00:31:42.818 : en:00:31:42.818
00:40:31.262 : en:00:40:31.262
00:47:41.776 : en:00:47:41.776
00:54:55.834 : en:00:54:55.834
01:01:06.329 : en:01:01:06.329
01:07:16.616 : en:01:07:16.616
01:12:36.978 : en:01:12:36.978
01:18:44.386 : en:01:18:44.386

Скриншоты


Для скачки контента: [Установить программу-клиент] и кликнуть по - Скачать

[asmlocator.ru].t460349.torrent 
Торрент: Зарегистрирован [ 2017-12-07 10:40 ] · EC9E67766A7CF0A06348693E85227F9121657E4E

Скачать .torrent

Скачать

55 KB

Статус: проверено
Скачан: 0 раз
Размер: 21,85 GB
terms.php
[Профиль] [ЛС]
Показать сообщения:    
Ответить на тему

Текущее время: 13-Дек 19:00

Часовой пояс: UTC ± 0



Вы не можете начинать темы
Вы не можете отвечать на сообщения
Вы не можете редактировать свои сообщения
Вы не можете удалять свои сообщения
Вы не можете голосовать в опросах
Вы не можете прикреплять файлы к сообщениям
Вы можете скачивать файлы