Загадка исчезновения неандертальцев / Apocalypse Neanderthal (Джейсон Лаванжи / Jason Levangie) [2015, Документальный, история, археология, IPTVRip]

Ответить на тему
Статистика раздачи
Размер:  1,9 GB   |    Зарегистрирован:  6 дней   |    Скачан:  0 раз

Полного источника не было: Никогда

 
   
 
 
Автор Сообщение

star21 ®

Пол: Не указан

Стаж: 2 года 1 месяц

Сообщений: 354215

Создавать темы 07-Дек-2017 10:41

[Цитировать]

Загадка исчезновения неандертальцев / Apocalypse Neanderthal Дата/Год выпуска: 2015
Страна: Канада
Жанр: Документальный, история, археология
Продолжительность: 2 x ~ 00:50:12
Перевод: Профессиональный (дублированный)
Доп. инфо о переводе: SDI Media
Русские субтитры: нетОригинальная аудиодорожка: нет
Режиссер: Джейсон Лаванжи / Jason LevangieТелеканал: Viasat History
Описание: На протяжении тысячи лет неандертальцы благополучно жили на планете, однако во мгновение ока, они исчезли с лица Земли. Сегодня ученые пытаются понять, как и почему это произошло. Согласно одной из ранее предложенных гипотез более продвинутые сапиенсы, обладавшие более высокими культурными и техническими навыками, начали постепенно проникать в Европу и в течение нескольких тысяч лет вытесняли неандертальцев. Однако благодаря современным исследованиям, ученые и антропологи считают, что неандертальцы вымерли в результате извержения вулкана 39000 лет назад. Эту теорию они попытаются подтвердить в этом сериале.Доп. информация: Видео - прямой поток от провайдера с crop и масштабированием без сжатия. Раздача производится папкой. В папке два (2) видеофайла.Сэмпл: http://multi-up.com/1096310качество: IPTVRip
формат: MKV
Видео: 720x384 (1,85:1), 25 fps, MPEG4 Video (H264), Baseline@L4.1, 2489 Кбит/сек, 0.360 bit/pixe
Аудио: 48 kHz, AC3 Dolby Digital, 2/0 (L,R) Surround Encoded ch, ~192 kbps

MediaInfo

ОбщееУникальный идентификатор                 : 227825014498803336371834558475176128747 (0xAB658072B6568E1A9BC981A78C1630EB)Полное имя                               : E:\Pshichko66\Na zapis'\Документальные фильмы\Zagadka ischeznovenija neandertal'cev\1 chast'.mkvФормат                                   : MatroskaВерсия формата                           : Version 4 / Version 2Размер файла                             : 964 МбайтПродолжительность                        : 50 м.Общий поток                              : 2683 Кбит/секДата кодирования                         : UTC 2016-04-04 12:06:54Программа кодирования                    : mkvmerge v7.0.0 ('Where We Going') 32bit built on Jun  9 2014 15:08:34Библиотека кодирования                   : libebml v1.3.0 + libmatroska v1.4.1ВидеоИдентификатор                            : 1Формат                                   : AVCФормат/Информация                        : Advanced Video CodecПрофиль формата                          : Baseline@L4.1Параметр CABAC формата                   : НетПараметр ReFrames формата                : 3 кадраИдентификатор кодека                     : V_MPEG4/ISO/AVCПродолжительность                        : 50 м.Битрейт                                  : 2489 Кбит/секШирина                                   : 720 пикселейВысота                                   : 384 пикселяСоотношение сторон                       : 1,85:1Режим частоты кадров                     : ПостоянныйЧастота кадров                           : 25,000 кадров/секЦветовое пространство                    : YUVСубдискретизация насыщенности            : 4:2:0Битовая глубина                          : 8 битТип развёртки                            : ПрогрессивнаяБит/(Пиксели*Кадры)                      : 0.360Размер потока                            : 894 Мбайт (93%)Default                                  : ДаForced                                   : НетАудиоИдентификатор                            : 2Формат                                   : AC-3Формат/Информация                        : Audio Coding 3Профиль формата                          : Dolby DigitalРасширение режима                        : CM (complete main)Параметр Endianness формата              : BigИдентификатор кодека                     : A_AC3Продолжительность                        : 50 м.Вид битрейта                             : ПостоянныйБитрейт                                  : 192 Кбит/секКаналы                                   : 2 каналаРасположение каналов                     : Front: L RЧастота                                  : 48,0 КГцЧастота кадров                           : 31,250 кадров/сек (1536 spf)Метод сжатия                             : С потерямиРазмер потока                            : 69,0 Мбайт (7%)Default                                  : ДаForced                                   : НетОбщееУникальный идентификатор                 : 219591673720013127192599873984256096154 (0xA533D16828010C45A54A3112C6F5379A)Полное имя                               : E:\Pshichko66\Na zapis'\Документальные фильмы\Zagadka ischeznovenija neandertal'cev\2 chast'.mkvФормат                                   : MatroskaВерсия формата                           : Version 4 / Version 2Размер файла                             : 980 МбайтПродолжительность                        : 51 м.Общий поток                              : 2678 Кбит/секДата кодирования                         : UTC 2016-04-04 12:25:15Программа кодирования                    : mkvmerge v7.0.0 ('Where We Going') 32bit built on Jun  9 2014 15:08:34Библиотека кодирования                   : libebml v1.3.0 + libmatroska v1.4.1ВидеоИдентификатор                            : 1Формат                                   : AVCФормат/Информация                        : Advanced Video CodecПрофиль формата                          : Baseline@L4.1Параметр CABAC формата                   : НетПараметр ReFrames формата                : 3 кадраИдентификатор кодека                     : V_MPEG4/ISO/AVCПродолжительность                        : 51 м.Битрейт                                  : 2484 Кбит/секШирина                                   : 720 пикселейВысота                                   : 384 пикселяСоотношение сторон                       : 1,85:1Режим частоты кадров                     : ПостоянныйЧастота кадров                           : 25,000 кадров/секЦветовое пространство                    : YUVСубдискретизация насыщенности            : 4:2:0Битовая глубина                          : 8 битТип развёртки                            : ПрогрессивнаяБит/(Пиксели*Кадры)                      : 0.359Размер потока                            : 909 Мбайт (93%)Default                                  : ДаForced                                   : НетАудиоИдентификатор                            : 2Формат                                   : AC-3Формат/Информация                        : Audio Coding 3Профиль формата                          : Dolby DigitalРасширение режима                        : CM (complete main)Параметр Endianness формата              : BigИдентификатор кодека                     : A_AC3Продолжительность                        : 51 м.Вид битрейта                             : ПостоянныйБитрейт                                  : 192 Кбит/секКаналы                                   : 2 каналаРасположение каналов                     : Front: L RЧастота                                  : 48,0 КГцЧастота кадров                           : 31,250 кадров/сек (1536 spf)Метод сжатия                             : С потерямиРазмер потока                            : 70,2 Мбайт (7%)Default                                  : ДаForced                                   : Нет

Скриншоты

Для скачки контента: [Установить программу-клиент] и кликнуть по - Скачать

[asmlocator.ru].t460345.torrent 
Торрент: Зарегистрирован [ 2017-12-07 10:40 ] · 6E87201D8899AC96E159BFAEB48B8DA16FF6A9D3

Скачать .torrent

Скачать

20 KB

Статус: проверено
Скачан: 0 раз
Размер: 1,9 GB
terms.php
[Профиль] [ЛС]
Показать сообщения:    
Ответить на тему

Текущее время: 13-Дек 19:00

Часовой пояс: UTC ± 0



Вы не можете начинать темы
Вы не можете отвечать на сообщения
Вы не можете редактировать свои сообщения
Вы не можете удалять свои сообщения
Вы не можете голосовать в опросах
Вы не можете прикреплять файлы к сообщениям
Вы можете скачивать файлы