Холостой патрон / Blank Bullet / Srak Srak (Хаим Бузагло / Haim Bouzaglo) [2010, Израиль, Испания, триллер, драма, DVDRip] + Sub Rus, Heb + Original Heb

Ответить на тему
Статистика раздачи
Размер:  1,37 GB   |    Зарегистрирован:  6 дней   |    Скачан:  0 раз

Полного источника не было: Никогда

 
   
 
 
Автор Сообщение

star21 ®

Пол: Не указан

Стаж: 2 года 1 месяц

Сообщений: 354215

Создавать темы 07-Дек-2017 10:41

[Цитировать]

Холостой патрон / Blank Bullet / Srak Srak Страна: Израиль, Испания
Жанр: триллер, драма
Год выпуска: 2010
Продолжительность: 01:36:57Перевод: Субтитры
Субтитры: русские (softsub, ASS), иврит (hardsub)
Оригинальная аудиодорожка: ивритРежиссер: Хаим Бузагло / Haim BouzagloВ ролях: Амос Лави, Хули Фабрегас, Лирон Лево, Раймонд Амсалем, Эяль Агаронович, Джордж Искандер, Мерсе Ровира, Сара Каталан, Арье Шернер, Пира Кантор, Элизабет Кедем, Хила СаадаОписание: В 1993 году премьер-министр Ираиля Ицхак Рабин подписал «Соглашения в Осло» (за что получил вместе с Ясиром Арафатом и Шимоном Пересом Нобелевскую премию мира), согласившись уступить Организации Освобождения Палестины оккупированные Израилем территории, в обмен на мир. Соглашения с ООП привели к расколу в израильском обществе: одни считали Рабина героем за стремление к миру, другие - предателем за отдачу палестинцам земель, которые, по их мнению, принадлежат Израилю. Многие израильтяне обвиняли Рабина в том, что из-за подписанного им в Осло соглашения погибли тысячи евреев. В 1995 году религиозные экстремисты провели в отношении Рабина каббалистический обряд проклятия "пульса де-нура" (удар огня), через месяц после которого Ицхак Рабин был убит.
2004 год. Премьер-министр Израиля Ариэль Шарон инициирует свой план одностороннего размежевания с Палестинской автономией, предусматривающий вывод всех еврейских поселений и израильских войск с территории сектора Газа, а также ряда поселений из Самарии. За отдачу территорий Шарон подвергается резкой критике со стороны как «либеральной», так и «консервативной» части израильского общества, вплоть до угроз убийства. Раввины, представители правоэкстремистских кругов, проводят в отношении Шарона ритуал проклятия "пульса де-нура".
Обстоятельства убеждают Шарона отменить публичные выступления. Но приближается День Катастрофы и связанный с ним церемониал в мемориале "Яд ва-Шем", на котором премьер-министр должен присутствовать. У главы Общей службы безопасности (Шабак) Амоса Снира есть 60 часов, чтобы выявить потенциального убийцу премьер-министра и предотвратить убийство.
В августе-сентябре 2005 года план размежевания, инициированный Шароном, был полностью осуществлён. Спустя несколько месяцев, Ариэль Шарон в результате обширного инсульта впал в кому, не выходя из которой умер в 2014 году.Доп. информация: КиноПоиск, IMDbСэмпл: https://www.mediafire.com/file/0wftcq735xw5u5f/Sample_Blank_Bullet.aviКачество видео: DVDRip
Формат видео: AVIВидео: XviD 704х368 1,913 25 кадров/сек 1564 Кбит/сек
Аудио: AC-3 48 КГц 6 каналов 448 Кбит/сек
Формат субтитров: softsub (ASS)

Образец субтитров

Dialogue: 0,0:04:59.22,0:05:02.13,Default,,0,0,0,,Луч направлен из кустов, с севера.
Dialogue: 0,0:05:02.14,0:05:04.97,Default,,0,0,0,,Не знаю, как. Территория была прочёсана,\Nпо крайней мере, 3 раза.
Dialogue: 0,0:05:04.98,0:05:06.77,Default,,0,0,0,,В сущности, ничего не произошло.
Dialogue: 0,0:05:06.77,0:05:10.09,Default,,0,0,0,,Так что мы делаем здесь? Идёмте домой.
Dialogue: 0,0:05:10.19,0:05:12.02,Default,,0,0,0,,Да.
Dialogue: 0,0:05:14.26,0:05:18.41,Default,,0,0,0,,- Что ты делаешь здесь?\N- Это - Дани, "убийца" премьер-министра.
Dialogue: 0,0:05:18.42,0:05:22.13,Default,,0,0,0,,- Но он стоял там...\N- Но, но, но, но!
Dialogue: 0,0:05:22.14,0:05:26.69,Default,,0,0,0,,Но он - охранник.\NОн коротко подстрижен и одет, как все.
Dialogue: 0,0:05:26.70,0:05:28.69,Default,,0,0,0,,Дани - координатор из разведки.
Dialogue: 0,0:05:28.70,0:05:31.20,Default,,0,0,0,,Он не имеет отношения к нашей службе,\Nон никогда не служил у нас.
Dialogue: 0,0:05:31.30,0:05:33.37,Default,,0,0,0,,Господа, мне грустно говорить.\NЭто было очень просто.
Dialogue: 0,0:05:33.38,0:05:36.21,Default,,0,0,0,,Я коротко подстригся,\Nкупил форму охранника в магазине,
Dialogue: 0,0:05:36.22,0:05:38.89,Default,,0,0,0,,наушники одолжил у друга.
Dialogue: 0,0:05:38.90,0:05:41.89,Default,,0,0,0,,В первом оцеплении никто, вообще,\Nне обратил внимания на меня.
Dialogue: 0,0:05:41.90,0:05:45.25,Default,,0,0,0,,Потом мне задали один вопрос,\Nи это всё, что произошло
Dialogue: 0,0:05:45.26,0:05:49.05,Default,,0,0,0,,до момента моего мнимого выстрела.
Dialogue: 0,0:05:49.06,0:05:53.52,Default,,0,0,0,,Как будто не научились ничему.
Dialogue: 0,0:05:53.62,0:05:58.62,Default,,0,0,0,,Премьер-министр не будет убит ещё раз,\Nи, конечно же, не пока я на службе.
Dialogue: 0,0:06:03.66,0:06:08.66,Default,,0,0,0,,Это всё.
Dialogue: 0,0:06:17.80,0:06:19.65,Default,,0,0,0,,Это не произойдёт больше.
Dialogue: 0,0:06:19.70,0:06:22.17,Default,,0,0,0,,Если б это был не ты...
Dialogue: 0,0:06:22.18,0:06:25.45,Default,,0,0,0,,Я сожалею.

MediaInfo

ОбщееПолное имя                               : Blank Bullet.aviФормат                                   : AVIФормат/Информация                        : Audio Video InterleaveРазмер файла                             : 1,37 ГбайтПродолжительность                        : 1 ч. 36 м.Общий поток                              : 2019 Кбит/секПрограмма кодирования                    : VirtualDubMod 1.5.4.1 (build 2178/release)Библиотека кодирования                   : VirtualDubMod build 2178/releaseВидеоИдентификатор                            : 0Формат                                   : MPEG-4 VisualПрофиль формата                          : Advanced Simple@L5Параметр BVOP формата                    : 1Параметр QPel формата                    : НетПараметр GMC формата                     : Без точки переходаПараметр матрицы формата                 : ВыборочнаяИдентификатор кодека                     : XVIDИдентификатор кодека/Подсказка           : XviDПродолжительность                        : 1 ч. 36 м.Битрейт                                  : 1564 Кбит/секШирина                                   : 704 пикселяВысота                                   : 368 пикселейСоотношение сторон                       : 1,913Частота кадров                           : 25,000 кадров/секЦветовое пространство                    : YUVСубдискретизация насыщенности            : 4:2:0Битовая глубина                          : 8 битТип развёртки                            : ПрогрессивнаяМетод сжатия                             : С потерямиБит/(Пиксели*Кадры)                      : 0.242Размер потока                            : 1,06 Гбайт (77%)Библиотека кодирования                   : XviD 64АудиоИдентификатор                            : 1Формат                                   : AC-3Формат/Информация                        : Audio Coding 3Расширение режима                        : CM (complete main)Параметр Endianness формата              : BigИдентификатор кодека                     : 2000Продолжительность                        : 1 ч. 36 м.Вид битрейта                             : ПостоянныйБитрейт                                  : 448 Кбит/секКаналы                                   : 6 каналовРасположение каналов                     : Front: L C R, Side: L R, LFEЧастота                                  : 48,0 КГцМетод сжатия                             : С потерямиЗадержка видео                           : 18 мс.Размер потока                            : 311 Мбайт (22%)Выравнивание                             : Разделение по промежуткамПродолжительность промежутка             : 96  мс. (2,40 видеокадра)Время предзагрузки промежутка            : 96  мс.Язык                                     : English

Скриншот c названием фильма

Скриншоты




Для скачки контента: [Установить программу-клиент] и кликнуть по - Скачать

[asmlocator.ru].t460343.torrent 
Торрент: Зарегистрирован [ 2017-12-07 10:40 ] · 996E5FBF309644E6E369CDCBC76A3BAFBE0717D0

Скачать .torrent

Скачать

14 KB

Статус: проверено
Скачан: 0 раз
Размер: 1,37 GB
terms.php
[Профиль] [ЛС]
Показать сообщения:    
Ответить на тему

Текущее время: 13-Дек 19:01

Часовой пояс: UTC ± 0



Вы не можете начинать темы
Вы не можете отвечать на сообщения
Вы не можете редактировать свои сообщения
Вы не можете удалять свои сообщения
Вы не можете голосовать в опросах
Вы не можете прикреплять файлы к сообщениям
Вы можете скачивать файлы