[TR24][SM][OF] Gustav Mahler - Symphony No. 9 - Berlin Philharmonic Orchestra & Sir John Barbirolli - 1964 [2011, Remaster] (Classical)

Ответить на тему
Статистика раздачи
Размер:  1,49 GB   |    Зарегистрирован:  6 дней   |    Скачан:  0 раз

Полного источника не было: Никогда

 
   
 
 
Автор Сообщение

star21 ®

Пол: Не указан

Стаж: 2 года 1 месяц

Сообщений: 354215

Создавать темы 07-Дек-2017 10:41

[Цитировать]

·
·
·
Gustav Mahler
(1860 - 1911)
Жанр: Symphony
Носитель: Official Digital Download
Год выпуска: 1964/2012
Номер по каталогу: ASD 596 · ASDS 597
Издатель: EMI Records Ltd.
Продолжительность: 01:18:11
Наличие сканов в раздаче: cover art
Контейнер: FLAC (*.flac)
Разрядность: 24/96
Количество каналов: 2.0
Формат: tracks
Источник: HDtracks
Pелизер: WEB (thanks to the original customer)

Треклист

Symphony No. 9 in D major01 I. Andante comodo 26:53
02 II. Im Tempo eines gemächlichen Ländlers. Etwas täppisch und sehr derb 14:52
03 III. Rondo-Burleske: Allegro assai. Sehr trotzig 13:41
04 IV. Adagio. Sehr langsam und noch zurückhaltend 22:59

Dynamic Range Meter

foobar2000 1.2.6 / Dynamic Range Meter 1.1.1log date: 2016-04-21 23:44:30--------------------------------------------------------------------------------Analyzed: Berliner Philharmoniker, Sir John Barbirolli / Mahler: Symphony No. 9 in D major--------------------------------------------------------------------------------DR         Peak         RMS     Duration Track--------------------------------------------------------------------------------DR13      -0.53 dB   -19.96 dB     26:53 01-Symphony No. 9 in D major: I. Andante comodoDR14      -1.32 dB   -20.99 dB     14:52 02-Symphony No. 9 in D major: II. Im Tempo eines gemächlichen Ländlers. Etwas täppisch und sehr derbDR14      -0.20 dB   -18.88 dB     13:41 03-Symphony No. 9 in D major: III. Rondo-Burleske: Allegro assai. Sehr trotzigDR13      -0.87 dB   -19.81 dB     22:59 04-Symphony No. 9 in D major: IV. Adagio. Sehr langsam und noch zurückhaltend--------------------------------------------------------------------------------Number of tracks:  4Official DR value: DR14Samplerate:        96000 HzChannels:          2Bits per sample:   24Bitrate:           2734 kbpsCodec:             FLAC================================================================================

Для скачки контента: [Установить программу-клиент] и кликнуть по - Скачать

[asmlocator.ru].t460340.torrent 
Торрент: Зарегистрирован [ 2017-12-07 10:40 ] · C94B1EC1751E1EC04005D5A3218D23BA5051FD19

Скачать .torrent

Скачать

16 KB

Статус: проверено
Скачан: 0 раз
Размер: 1,49 GB
terms.php
[Профиль] [ЛС]
Показать сообщения:    
Ответить на тему

Текущее время: 13-Дек 19:00

Часовой пояс: UTC ± 0



Вы не можете начинать темы
Вы не можете отвечать на сообщения
Вы не можете редактировать свои сообщения
Вы не можете удалять свои сообщения
Вы не можете голосовать в опросах
Вы не можете прикреплять файлы к сообщениям
Вы можете скачивать файлы