[RUS] (folk) Татьяна Иванова - 1968,1971 винил/лента/CDRip 2 альбома FLAC (image + .cue), lossless

Ответить на тему
Статистика раздачи
Размер:  504 MB   |    Зарегистрирован:  6 дней   |    Скачан:  0 раз

Полного источника не было: Никогда

 
   
 
 
Автор Сообщение

star21 ®

Пол: Не указан

Стаж: 2 года 1 месяц

Сообщений: 354215

Создавать темы 07-Дек-2017 10:40

[Цитировать]

Татьяна Иванова (Tatjana Iwanow)
Страна: ФРГ
Жанр: folk
Год выпуска: 1968, 1971
Формат: FLAC (image + .cue)
Битрейт аудио: lossless
Продолжительность: 2 LP + BonusТрэклист:На Красной площади (1968)1. Пусть гитара звучит
2. На Красной площади
3. Журавли
4. Мы на лодочке катались
5. Время прийдет
6. Ехали цыгане
7. Я ехала домой
8. Синий платочек
9. Вдоль по улице метелица
10. Подмосковные вечера
11. Катюша "Казачок"Татьяна (1971)
12. Попурри : Ой, снег-снежок + Всё, что было…+ Эх, яблочко +
У нас нонче субботея + Фонари, фонарики мои
13. То не ветер ветку клонит
14. И льётся песня
15. Сегодня как всегда
16. Калинка
17. Две гитары
18. Быстро мчится время
19. Жизнь цыганская
20. Трын-трава
21. Калитка
22. Там за лесом цыгане стоялиBonus из LP " Tatjana Iwanow/Iwan Rebroff/Dunja Rajter"23. Коробейники
24. Мой костер в тумане светитДоп. информация: Записано с оригинальных LP (состояние отличное) в конце 70-х, начале 80-х на катушечник Akai-650, лента правда отечественная. Оцифровывал в 2005-2006г. сам, катушечник Akai-77, аудиокарта Audigy-2. Цифровал сразу в 44,1/16, ничего не чистил.
2 альбома разместил на 1 CD диск, так и раздаю. Трэки и альбомы в куе прописаны.

Отчёт EAC

Exact Audio Copy V0.99 prebeta 4 from 23. January 2008Отчёт EAC об извлечении, выполненном 24. апреля 2008, 9:46Tatjana Iwanowa / 2LP + BonusДисковод: ASUS DRW-1814BL Adapter: 1 ID: 0Режим чтения : Достоверность
Использование точного потока : Да
Отключение кэша аудио : Да
Использование указателей C2 : НетКоррекция смещения при чтении : 6
Способность читать области Lead-in и Lead-out : Нет
Заполнение пропущенных сэмплов тишиной : Да
Удаление блоков с тишиной в начале и конце : Нет
При вычислениях CRC использовались нулевые сэмплы : Да
Интерфейс : Установленный внешний ASPI-интерфейсВыходной формат : Пользовательский кодировщик
Выбранный битрейт : 128 kBit/s
Качество : Высокий
Добавление ID3-тэга : Нет
Утилита сжатия : C:\Program Files\FLAC\FLAC frontend.exe
Дополнительные параметры : -T "artist=%a" -T "title=%t" -T "album=%g" -T "date=%y" -T "tracknumber=%n" -T "genre=%m" -5 %sTOC извлечённого CD Трек | Старт | Длительность | Начальный сектор | Конечный сектор
---------------------------------------------------------------------
1 | 0:00.00 | 2:49.08 | 0 | 12682
2 | 2:49.08 | 4:17.24 | 12683 | 31981
3 | 7:06.32 | 3:08.11 | 31982 | 46092
4 | 10:14.43 | 2:14.47 | 46093 | 56189
5 | 12:29.15 | 2:58.45 | 56190 | 69584
6 | 15:27.60 | 1:57.54 | 69585 | 78413
7 | 17:25.39 | 3:11.33 | 78414 | 92771
8 | 20:36.72 | 2:40.16 | 92772 | 104787
9 | 23:17.13 | 2:44.56 | 104788 | 117143
10 | 26:01.69 | 2:52.27 | 117144 | 130070
11 | 28:54.21 | 2:46.33 | 130071 | 142553
12 | 31:40.54 | 2:52.44 | 142554 | 155497
13 | 34:33.23 | 4:31.12 | 155498 | 175834
14 | 39:04.35 | 2:58.28 | 175835 | 189212
15 | 42:02.63 | 4:07.57 | 189213 | 207794
16 | 46:10.45 | 4:41.04 | 207795 | 228873
17 | 50:51.49 | 3:33.43 | 228874 | 244891
18 | 54:25.17 | 3:14.43 | 244892 | 259484
19 | 57:39.60 | 3:17.18 | 259485 | 274277
20 | 60:57.03 | 3:36.44 | 274278 | 290521
21 | 64:33.47 | 5:05.43 | 290522 | 313439
22 | 69:39.15 | 3:17.52 | 313440 | 328266
23 | 72:56.67 | 2:42.66 | 328267 | 340482
24 | 75:39.58 | 2:44.33 | 340483 | 352815Характеристики диапазона извлечения и сообщения об ошибкахВыбранный диапазон Имя файла H:\Образы на раздачу\Новая папка\Tatjana Iwanowa - Tatjana Iwanowa.wav Пиковый уровень 100.0 %
Качество диапазона 100.0 %
CRC копии 8E65D89A
Копирование... OKОшибок не произошлоКонец отчёта

Для скачки контента: [Установить программу-клиент] и кликнуть по - Скачать

[asmlocator.ru].t460286.torrent 
Торрент: Зарегистрирован [ 2017-12-07 10:40 ] · 2E29048D21B224BCCD8F721C3114C4B58BA4AD62

Скачать .torrent

Скачать

20 KB

Статус: проверено
Скачан: 0 раз
Размер: 504 MB
terms.php
[Профиль] [ЛС]
Показать сообщения:    
Ответить на тему

Текущее время: 13-Дек 18:59

Часовой пояс: UTC ± 0



Вы не можете начинать темы
Вы не можете отвечать на сообщения
Вы не можете редактировать свои сообщения
Вы не можете удалять свои сообщения
Вы не можете голосовать в опросах
Вы не можете прикреплять файлы к сообщениям
Вы можете скачивать файлы