Fergie • Rock in Rio [2017, Pop, HDTV, 1080i]

Ответить на тему
Статистика раздачи
Размер:  4,47 GB   |    Зарегистрирован:  9 дней   |    Скачан:  0 раз

Полного источника не было: Никогда

 
   
 
 
Автор Сообщение

star21 ®

Пол: Не указан

Стаж: 2 года 1 месяц

Сообщений: 354215

Создавать темы 04-Дек-2017 05:11

[Цитировать]


Fergie

Жанр: Pop
Продолжительность: 01:21:41
Год выпуска: September 15, 2017
Качество: HDTV
Разрешение видео/развертка: 1080i
Контейнер: TS
Видео кодек: H.264
Аудио кодек: AC3
Видео: MPEG4 Video (H264) 1920x1080 29.97fps 7 065 kb/s
Аудио: Dolby AC3 48000Hz 6ch 384kbps

Треклист

Hungry
Fergalicious
M.I.L.F. $
You Already Know
Just Like You (Interlude)
Glamorous (with Pabllo Vittar)
Sua cara (Major Lazer cover) (with Pabllo Vittar)
Mas que Nada (with Sergio Mendes)
Love is Pain
Like It Ain't Nuttin' (Interlude)
Here I Come (This Is What You Came For… more )
My Humps (The Black Eyed Peas song)
Rock That Body (The Black Eyed Peas song)
Don't Stop the Party (The Black Eyed Peas song)
Party All the Time (The Black Eyed Peas song)
A Little Party Never Killed Nobody (All We Got)
Let's Get It Started (The Black Eyed Peas song)
London Bridge
Imma Be (The Black Eyed Peas song)
Hey Mama (The Black Eyed Peas song)
All of the Lights (Kanye West cover)
Boom Boom Pow (The Black Eyed Peas song)
Don't Phunk With My Heart (The Black Eyed Peas song)
Meet Me Halfway (The Black Eyed Peas song)
Pump It (The Black Eyed Peas song)
The Time (Dirty Bit) (The Black Eyed Peas song)
Gettin' Over You (David Guetta cover)
Big Girls Don't Cry
I Gotta Feeling (The Black Eyed Peas song)

Отчёт MediaInfo / BDInfo

ОбщееИдентификатор                            : 1 (0x1)Полное имя                               : H:\Fergie - Rock in Rio Brasil 2017.tsФормат                                   : MPEG-TSРазмер файла                             : 4,47 ГбайтПродолжительность                        : 1 ч. 21 м.Режим общего битрейта                    : ПеременныйОбщий поток                              : 7841 Кбит/секМаксимальный общий битрейт               : 35,5 Мбит/секВидеоИдентификатор                            : 4113 (0x1011)Идентификатор меню                       : 1 (0x1)Формат                                   : AVCФормат/Информация                        : Advanced Video CodecПрофиль формата                          : High@L4Настройки формата                        : CABAC / 4 Ref FramesПараметр CABAC формата                   : ДаПараметр RefFrames формата               : 4 кадраПараметр GOP формата                     : M=4, N=32Идентификатор кодека                     : 27Продолжительность                        : 1 ч. 21 м.Вид битрейта                             : ПеременныйБитрейт                                  : 7065 Кбит/секМаксимальный битрейт                     : 40,0 Мбит/секШирина                                   : 1920 пикселейВысота                                   : 1080 пикселейСоотношение сторон                       : 16:9Частота кадров                           : 29,970 (30000/1001) кадров/секЦветовое пространство                    : YUVСубдискретизация насыщенности            : 4:2:0Битовая глубина                          : 8 битТип развёртки                            : ЧересстрочнаяМетод сохранения типа развёртки          : Раздельные поляПорядок развёртки                        : Верхнее поле первоеБит/(Пиксели*Кадры)                      : 0.114Размер потока                            : 4,03 Гбайт (90%)Цветовой диапазон                        : LimitedОсновные цвета                           : BT.709Характеристики трансфера                 : BT.709Коэффициенты матрицы                     : BT.709АудиоИдентификатор                            : 4352 (0x1100)Идентификатор меню                       : 1 (0x1)Формат                                   : AC-3Формат/Информация                        : Audio Coding 3Параметр Endianness формата              : BigИдентификатор кодека                     : 129Продолжительность                        : 1 ч. 21 м.Вид битрейта                             : ПостоянныйБитрейт                                  : 384 Кбит/секКаналы                                   : 6 каналовРасположение каналов                     : Front: L C R, Side: L R, LFEЧастота                                  : 48,0 КГцЧастота кадров                           : 31,250 кадров/сек (1536 SPF)Битовая глубина                          : 16 битМетод сжатия                             : С потерямиЗадержка видео                           : -1 с. 175 мс.Размер потока                            : 224 Мбайт (5%)Язык                                     : PortugueseServiceKind/String                       : Complete Main

Для скачки контента: [Установить программу-клиент] и кликнуть по - Скачать

[asmlocator.ru].t457153.torrent 
Торрент: Зарегистрирован [ 2017-12-04 05:10 ] · 61489581DAC6D7EC6C2D5D297C51EB75F3015695

Скачать .torrent

Скачать

12 KB

Статус: проверено
Скачан: 0 раз
Размер: 4,47 GB
terms.php
[Профиль] [ЛС]
Показать сообщения:    
Ответить на тему

Текущее время: 13-Дек 19:02

Часовой пояс: UTC ± 0



Вы не можете начинать темы
Вы не можете отвечать на сообщения
Вы не можете редактировать свои сообщения
Вы не можете удалять свои сообщения
Вы не можете голосовать в опросах
Вы не можете прикреплять файлы к сообщениям
Вы можете скачивать файлы