(Rock) [CD] aiko - Awa no You na Ai Datta (泡のような愛だった) - 2014, WavPack (image+.cue), lossless

Ответить на тему
Статистика раздачи
Размер:  768 MB   |    Зарегистрирован:  9 дней   |    Скачан:  0 раз

Полного источника не было: Никогда

 
   
 
 
Автор Сообщение

star21 ®

Пол: Не указан

Стаж: 2 года 1 месяц

Сообщений: 354215

Создавать темы 04-Дек-2017 03:05

[Цитировать]

aiko / 泡のような愛だった Жанр: Rock
Носитель: CD
Страна-производитель диска (релиза): Japan
Год издания: 2014
Издатель (лейбл): Pony Canyon
Номер по каталогу: PCCA-15011W
Страна исполнителя (группы): Japan
Аудиокодек: WavPack (*.wv)
Тип рипа: image+.cue
Битрейт аудио: lossless
Продолжительность: 01:03:52
Источник (релизер): SHI
Наличие сканов в содержимом раздачи: да
Треклист:
01 明日の歌
02 染まる夢
03 Loveletter
04 あなたを連れて
05 距離
06 サイダー
07 4月の雨
08 遊園地
09 透明ドロップ
10 君の隣
11 大切な人
12 キスの息
13 卒業式01 aiko's Radio side A
02 鏡
03 aiko's Radio side B

Лог создания рипа

Exact Audio Copy V1.3 from 2. September 2016EAC extraction logfile from 23. September 2017, 13:34aiko / 泡のような愛だったUsed drive  : TSSTcorpBDDVDW SE-506BB   Adapter: 2  ID: 0Read mode               : SecureUtilize accurate stream : YesDefeat audio cache      : YesMake use of C2 pointers : NoRead offset correction                      : 6Overread into Lead-In and Lead-Out          : NoFill up missing offset samples with silence : YesDelete leading and trailing silent blocks   : NoNull samples used in CRC calculations       : YesUsed interface                              : Installed external ASPI interfaceUsed output format              : User Defined EncoderSelected bitrate                : 768 kBit/sQuality                         : HighAdd ID3 tag                     : NoCommand line compressor         : C:\Progs\wavpack\wavpack.exeAdditional command line options : -h -d %source%TOC of the extracted CD     Track |   Start  |  Length  | Start sector | End sector    ---------------------------------------------------------        1  |  0:00.00 |  5:17.01 |         0    |    23775        2  |  5:17.01 |  3:59.68 |     23776    |    41768        3  |  9:16.69 |  4:46.73 |     41769    |    63291        4  | 14:03.67 |  4:21.22 |     63292    |    82888        5  | 18:25.14 |  5:12.00 |     82889    |   106288        6  | 23:37.14 |  4:30.65 |    106289    |   126603        7  | 28:08.04 |  5:39.58 |    126604    |   152086        8  | 33:47.62 |  4:41.16 |    152087    |   173177        9  | 38:29.03 |  5:10.05 |    173178    |   196432       10  | 43:39.08 |  4:49.06 |    196433    |   218113       11  | 48:28.14 |  6:00.15 |    218114    |   245128       12  | 54:28.29 |  4:16.04 |    245129    |   264332       13  | 58:44.33 |  5:08.25 |    264333    |   287457Range status and errorsSelected range     Filename E:\Torrents\Aiko - 泡のような愛だった\aiko - 泡のような愛だった.wav     Peak level 99.8 %     Extraction speed 2.2 X     Range quality 100.0 %     Test CRC 3D5576E9     Copy CRC 3D5576E9     Copy OKNo errors occurredAccurateRip summaryTrack  1  accurately ripped (confidence 37)  [16B868F7]  (AR v2)Track  2  accurately ripped (confidence 37)  [06F81DDD]  (AR v2)Track  3  accurately ripped (confidence 37)  [2B985CC9]  (AR v2)Track  4  accurately ripped (confidence 37)  [FB332581]  (AR v2)Track  5  accurately ripped (confidence 37)  [F6F7E17B]  (AR v2)Track  6  accurately ripped (confidence 37)  [A39A41B8]  (AR v2)Track  7  accurately ripped (confidence 37)  [30E7D6C4]  (AR v2)Track  8  accurately ripped (confidence 37)  [B844524F]  (AR v2)Track  9  accurately ripped (confidence 37)  [81C41479]  (AR v2)Track 10  accurately ripped (confidence 37)  [223B541C]  (AR v2)Track 11  accurately ripped (confidence 37)  [309AFA95]  (AR v2)Track 12  accurately ripped (confidence 37)  [65A60EC7]  (AR v2)Track 13  accurately ripped (confidence 37)  [A383043C]  (AR v2)All tracks accurately rippedEnd of status report---- CUETools DB Plugin V2.1.6[CTDB TOCID: UvZrucnnbNLnOUBfm1iGyz97Ba4-] foundSubmit result: UvZrucnnbNLnOUBfm1iGyz97Ba4- has been confirmedTrack | CTDB Status  1   | (172/173) Accurately ripped  2   | (173/173) Accurately ripped  3   | (171/173) Accurately ripped  4   | (173/173) Accurately ripped  5   | (173/173) Accurately ripped  6   | (172/173) Accurately ripped  7   | (171/173) Accurately ripped  8   | (171/173) Accurately ripped  9   | (173/173) Accurately ripped 10   | (173/173) Accurately ripped 11   | (166/173) Accurately ripped 12   | (172/173) Accurately ripped 13   | (170/173) Accurately ripped==== Log checksum CD1F9925F759976F156478764498E540677C65733090D092D455EACFDC7FC6CB ====Exact Audio Copy V1.3 from 2. September 2016EAC extraction logfile from 23. September 2017, 11:48aiko / aiko's RadioUsed drive  : TSSTcorpBDDVDW SE-506BB   Adapter: 2  ID: 0Read mode               : SecureUtilize accurate stream : YesDefeat audio cache      : YesMake use of C2 pointers : NoRead offset correction                      : 6Overread into Lead-In and Lead-Out          : NoFill up missing offset samples with silence : YesDelete leading and trailing silent blocks   : NoNull samples used in CRC calculations       : YesUsed interface                              : Installed external ASPI interfaceUsed output format              : User Defined EncoderSelected bitrate                : 768 kBit/sQuality                         : HighAdd ID3 tag                     : NoCommand line compressor         : C:\Progs\wavpack\wavpack.exeAdditional command line options : -h -d %source%TOC of the extracted CD     Track |   Start  |  Length  | Start sector | End sector    ---------------------------------------------------------        1  |  0:00.00 | 38:16.20 |         0    |   172219        2  | 38:16.20 |  3:49.52 |    172220    |   189446        3  | 42:05.72 |  3:25.28 |    189447    |   204849Range status and errorsSelected range     Filename E:\Torrents\Aiko - 泡のような愛だった\aiko - aiko's Radio.wav     Peak level 100.0 %     Extraction speed 1.8 X     Range quality 99.9 %     Test CRC 6C4A9236     Copy CRC 6C4A9236     Copy OKNo errors occurredAccurateRip summaryTrack  1  accurately ripped (confidence 3)  [9B420683]  (AR v2)Track  2  accurately ripped (confidence 3)  [E3D7E4D1]  (AR v2)Track  3  accurately ripped (confidence 3)  [7CC9CB2D]  (AR v2)All tracks accurately rippedEnd of status report---- CUETools DB Plugin V2.1.6[CTDB TOCID: OFzhDstkSExVlwjSDQRqE1c24Fc-] foundSubmit result: OFzhDstkSExVlwjSDQRqE1c24Fc- has been confirmedTrack | CTDB Status  1   | (10/10) Accurately ripped  2   | (10/10) Accurately ripped  3   | (10/10) Accurately ripped==== Log checksum 585288392B8AE44069B2D68CA6EFE4C0A31FFE8C3E7994CE06B75E89EF14186F ====

Содержание индексной карты (.CUE)

REM GENRE RockREM DATE 2014REM DISCID A10EF80DREM COMMENT "ExactAudioCopy v1.3"CATALOG 4988013014084PERFORMER "aiko"TITLE "泡のような愛だった"FILE "aiko - 泡のような愛だった.wv" WAVE  TRACK 01 AUDIO    TITLE "明日の歌"    PERFORMER "aiko"    ISRC JPPC01400985    INDEX 01 00:00:00  TRACK 02 AUDIO    TITLE "染まる夢"    PERFORMER "aiko"    ISRC JPPC01400986    INDEX 00 05:14:52    INDEX 01 05:17:01  TRACK 03 AUDIO    TITLE "Loveletter"    PERFORMER "aiko"    ISRC JPPC01301347    INDEX 00 09:16:08    INDEX 01 09:16:69  TRACK 04 AUDIO    TITLE "あなたを連れて"    PERFORMER "aiko"    ISRC JPPC01400987    INDEX 00 13:59:43    INDEX 01 14:03:67  TRACK 05 AUDIO    TITLE "距離"    PERFORMER "aiko"    ISRC JPPC01400988    INDEX 00 18:20:65    INDEX 01 18:25:14  TRACK 06 AUDIO    TITLE "サイダー"    PERFORMER "aiko"    ISRC JPPC01400989    INDEX 00 23:33:65    INDEX 01 23:37:14  TRACK 07 AUDIO    TITLE "4月の雨"    PERFORMER "aiko"    ISRC JPPC01300609    INDEX 00 28:02:55    INDEX 01 28:08:04  TRACK 08 AUDIO    TITLE "遊園地"    PERFORMER "aiko"    ISRC JPPC01400990    INDEX 00 33:43:38    INDEX 01 33:47:62  TRACK 09 AUDIO    TITLE "透明ドロップ"    PERFORMER "aiko"    ISRC JPPC01400991    INDEX 00 38:25:54    INDEX 01 38:29:03  TRACK 10 AUDIO    TITLE "君の隣"    PERFORMER "aiko"    ISRC JPPC01302953    INDEX 00 43:37:59    INDEX 01 43:39:08  TRACK 11 AUDIO    TITLE "大切な人"    PERFORMER "aiko"    ISRC JPPC01400992    INDEX 00 48:23:65    INDEX 01 48:28:14  TRACK 12 AUDIO    TITLE "キスの息"    PERFORMER "aiko"    ISRC JPPC01400993    INDEX 00 54:25:05    INDEX 01 54:28:29  TRACK 13 AUDIO    TITLE "卒業式"    PERFORMER "aiko"    ISRC JPPC01400994    INDEX 00 58:40:09    INDEX 01 58:44:33REM GENRE RockREM DATE 2014REM DISCID 270AAB03REM COMMENT "ExactAudioCopy v1.3"PERFORMER "aiko"TITLE "aiko's Radio"FILE "aiko - aiko's Radio.wv" WAVE  TRACK 01 AUDIO    TITLE "aiko's Radio side A"    PERFORMER "aiko"    ISRC JPPC01400982    INDEX 01 00:00:00  TRACK 02 AUDIO    TITLE "鏡"    PERFORMER "aiko"    ISRC JPPC01400983    INDEX 01 38:16:20  TRACK 03 AUDIO    TITLE "aiko's Radio side B"    PERFORMER "aiko"    ISRC JPPC01400984    INDEX 01 42:05:72

Для скачки контента: [Установить программу-клиент] и кликнуть по - Скачать

[asmlocator.ru].t457052.torrent 
Торрент: Зарегистрирован [ 2017-12-04 03:05 ] · 313AA62130F534E38729B7272BBF7CA1D034D5FB

Скачать .torrent

Скачать

17 KB

Статус: проверено
Скачан: 0 раз
Размер: 768 MB
terms.php
[Профиль] [ЛС]
Показать сообщения:    
Ответить на тему

Текущее время: 13-Дек 19:01

Часовой пояс: UTC ± 0



Вы не можете начинать темы
Вы не можете отвечать на сообщения
Вы не можете редактировать свои сообщения
Вы не можете удалять свои сообщения
Вы не можете голосовать в опросах
Вы не можете прикреплять файлы к сообщениям
Вы можете скачивать файлы