(Soviet Variety) Эдуард Хиль - Пора любви 2CD (France) - 1995, FLAC (image+.cue), lossless

Ответить на тему
Статистика раздачи
Размер:  529 MB   |    Зарегистрирован:  9 дней   |    Скачан:  0 раз
Сидов:  1  [  0 KB/s  ]   Подробная статистика пиров
 
   
 
 
Автор Сообщение

star21 ®

Пол: Не указан

Стаж: 2 года 1 месяц

Сообщений: 354215

Создавать темы 04-Дек-2017 01:00

[Цитировать]

●★● Эдуард Хиль Пора любви ●★● Год выпуска диска : 1995
Производитель диска : DADC Austria
Аудио кодек : FLAC
Тип рипа : image+.cue (Test & Copy)
Битрейт аудио : lossless
Продолжительность : 01:02:19 + 44:54
Лейбл : Neva Int
Каталожный номер : 3476
Источник (релизер): Рипы оригинальных дисков из личной коллекции
Сканы: прилагаютсяРаритетный сборник выпущенный во Франции!

Диск 1


01. Катюша (М. Блантер - М. Исаковский)
02. А туман на луга ложитсяиз к/ф «Фронт за линией фронта» (В. Баснер - М. Матусовский)
03. Одинокая гармонь (Б. Мокроусов - М. Исаковский)
04. Случайный вальс (М. Фрадкин - Е. Долматовский)
05. Зима (Э. Ханок - С. Островой)
06. Гусары (А. Петров - сл. нар.)
07. Горькая свадьба (С. Пожлаков - Л. Чачечников)
08. Песня авиаторовиз к/ф «Небесный тихоход» (В. Соловьев-Седой - С. Фогельсон)
09. Подмосковные вечера (В. Соловьев-Седой - М. Матусовский)
10. В любое время года (А. Морозов - М. Рябинин)
11. Дождь на Неве (В. Шеповалов - Б. Гершт, К. Григорьев)
12. Ты и небо (А. Морозов - А. Азизов)
13. Березовый сокиз к/ф «Мировой парень» (В. Баснер - М. Матусовский)
14. Семеновна (Е. Барыбин - Ю. Погорельский)
15. Журавленок (Э. Колмановский - К. Ваншенкин)
16. Ходит по полю девчонка (М. Фрадкин - Н. Рыленков)
17. Ишак и соловей (В. Гаврилин - В. Гин)
18. Как провожают пароходы (А. Островский - К. Ваншенкин)
19. Пора любви (С. Пожлаков - Г. Горбовский)

Лог создания рипа

Exact Audio Copy V1.3 from 2. September 2016EAC extraction logfile from 18. September 2017, 18:45Эдуард Хиль / Пора любви (Диск 1)Used drive  : TSSTcorpCDDVDW SN-S082N   Adapter: 1  ID: 1Read mode               : SecureUtilize accurate stream : YesDefeat audio cache      : YesMake use of C2 pointers : NoRead offset correction                      : 6Overread into Lead-In and Lead-Out          : NoFill up missing offset samples with silence : YesDelete leading and trailing silent blocks   : NoNull samples used in CRC calculations       : YesUsed interface                              : Native Win32 interface for Win NT & 2000Used output format : Internal WAV RoutinesSample format      : 44.100 Hz; 16 Bit; StereoTOC of the extracted CD     Track |   Start  |  Length  | Start sector | End sector    ---------------------------------------------------------        1  |  0:00.00 |  1:40.37 |         0    |     7536        2  |  1:40.37 |  3:25.00 |      7537    |    22911        3  |  5:05.37 |  2:28.55 |     22912    |    34066        4  |  7:34.17 |  3:16.45 |     34067    |    48811        5  | 10:50.62 |  2:55.35 |     48812    |    61971        6  | 13:46.22 |  3:38.55 |     61972    |    78376        7  | 17:25.02 |  3:53.43 |     78377    |    95894        8  | 21:18.45 |  3:11.67 |     95895    |   110286        9  | 24:30.37 |  3:16.10 |    110287    |   124996       10  | 27:46.47 |  3:44.28 |    124997    |   141824       11  | 31:31.00 |  2:33.07 |    141825    |   153306       12  | 34:04.07 |  3:56.33 |    153307    |   171039       13  | 38:00.40 |  3:24.35 |    171040    |   186374       14  | 41:25.00 |  3:20.47 |    186375    |   201421       15  | 44:45.47 |  3:31.23 |    201422    |   217269       16  | 48:16.70 |  2:07.62 |    217270    |   226856       17  | 50:24.57 |  4:19.00 |    226857    |   246281       18  | 54:43.57 |  3:17.73 |    246282    |   261129       19  | 58:01.55 |  4:17.32 |    261130    |   280436Range status and errorsSelected range     Filename D:\Эдуард Хиль - Пора любви (Диск 1) (Neva Int ‎3476).wav     Peak level 100.0 %     Extraction speed 1.3 X     Range quality 100.0 %     Test CRC B2FDDD3B     Copy CRC B2FDDD3B     Copy OKNo errors occurredAccurateRip summaryTrack  1  not present in databaseTrack  2  not present in databaseTrack  3  not present in databaseTrack  4  not present in databaseTrack  5  not present in databaseTrack  6  not present in databaseTrack  7  not present in databaseTrack  8  not present in databaseTrack  9  not present in databaseTrack 10  not present in databaseTrack 11  not present in databaseTrack 12  not present in databaseTrack 13  not present in databaseTrack 14  not present in databaseTrack 15  not present in databaseTrack 16  not present in databaseTrack 17  not present in databaseTrack 18  not present in databaseTrack 19  not present in databaseNone of the tracks are present in the AccurateRip databaseEnd of status report---- CUETools DB Plugin V2.1.6[CTDB TOCID: wXTnE6YGIYYDduv7IIiQF6IrB0Q-] disk not present in databaseSubmit result: wXTnE6YGIYYDduv7IIiQF6IrB0Q- has been uploaded==== Log checksum EF68E2A81BE70D0E62ABF42E8E5A4E94DE9945A43E69CFEC03726C3DEF6EAA86 ====

Спектр

Динамический диапазон (Dynamic Range)

foobar2000 1.3.10 / Замер динамического диапазона (DR) 1.1.1Дата отчёта: 2017-10-01 09:35:36--------------------------------------------------------------------------------Анализ:       Эдуард Хиль / Пора любви (Диск 1)--------------------------------------------------------------------------------DR         Пики            RMS           Продолжительность трека--------------------------------------------------------------------------------DR12      -4.03 дб        -19.98 дб         1:40 01-КатюшаDR11      -4.53 дб        -19.58 дб         3:25 02-ТуманDR12      -4.72 дб        -19.78 дб         2:29 03-Одинокая гармоньDR13      -3.78 дб        -21.00 дб         3:17 04-Случайный вальсDR11      -6.95 дб        -21.36 дб         2:55 05-ЗимаDR13      -3.79 дб        -19.27 дб         3:39 06-ГусарыDR14       0.00 дб        -18.24 дб         3:54 07-Горькая свадьбаDR13      -2.62 дб        -19.30 дб         3:12 08-Песня авиаторов (Пора в путь-дорогу)DR13      -3.35 дб        -21.02 дб         3:16 09-Подмосковные вечераDR11      -1.73 дб        -15.82 дб         3:44 10-В любое время годаDR11      -4.69 дб        -18.41 дб         2:33 11-Дождь на НевеDR11      -0.92 дб        -15.75 дб         3:56 12-Ты и небоDR12       0.00 дб        -16.03 дб         3:24 13-Березовый сокDR12      -4.72 дб        -20.35 дб         3:21 14-СеменовнаDR10      -4.99 дб        -19.73 дб         3:31 15-ЖуравленокDR12      -4.00 дб        -19.71 дб         2:08 16-Ходит по полю девчонкаDR13      -0.77 дб        -18.99 дб         4:19 17-Ишак и соловейDR14      -5.13 дб        -24.81 дб         3:18 18-Как провожают пароходыDR13      -2.04 дб        -18.43 дб         4:17 19-Пора любви--------------------------------------------------------------------------------Количество треков:    19Реальные значения DR: DR12Частота:                 44100 ГцКаналов:                 2Бит на сэмпл:    16Битрейт:                 721 кбит/сКодек:                   FLAC================================================================================

Диск 2


01. Хризантемы (Н. Харито - В. Шумский)
02. Дорогой длинною (Б. Фомин - К. Подревский)
03. Судьба (С. Байнес - В. Крылов)
04. Кавалергардыиз к/ф «Звезда пленительного счастья» (И. Шварц - Б. Окуджава)
05. Москва златоглавая (народная)
06. Девонька милая (народная)
07. Ямщик, не гони лошадей (Я. Фельдман - Н. Риттер)
08. Гори, гори, моя звезда (П. Булахов - В. Чуевский)
09. Серёжка ольховаяиз т/ф «И это всё о нём» (Е. Крылатов - Е. Евтушенко)
10. На последнюю пятерку (народная)
11. А цыган идетиз к/ф «Жестокий романс» (А. Петров - Р. Киплинг, пер. Г. Кружкова)
12. Белой акации гроздья душистыеиз т/ф «Дни Турбиных» (В. Баснер - М. Матусовский)
13. Ах, какие сегодня зарницыиз к/ф «Они были актерами» (В. Баснер - М. Матусовский)
14. Калинка (народная)
15. Утро туманное (А. Абаза - И. Тургенев)

Лог создания рипа

Exact Audio Copy V1.3 from 2. September 2016EAC extraction logfile from 18. September 2017, 20:18Эдуард Хиль / Пора любви (Диск 2)Used drive  : TSSTcorpCDDVDW SN-S082N   Adapter: 1  ID: 1Read mode               : SecureUtilize accurate stream : YesDefeat audio cache      : YesMake use of C2 pointers : NoRead offset correction                      : 6Overread into Lead-In and Lead-Out          : NoFill up missing offset samples with silence : YesDelete leading and trailing silent blocks   : NoNull samples used in CRC calculations       : YesUsed interface                              : Native Win32 interface for Win NT & 2000Used output format : Internal WAV RoutinesSample format      : 44.100 Hz; 16 Bit; StereoTOC of the extracted CD     Track |   Start  |  Length  | Start sector | End sector    ---------------------------------------------------------        1  |  0:00.00 |  2:45.07 |         0    |    12381        2  |  2:45.07 |  3:25.30 |     12382    |    27786        3  |  6:10.37 |  4:04.20 |     27787    |    46106        4  | 10:14.57 |  3:22.60 |     46107    |    61316        5  | 13:37.42 |  2:47.73 |     61317    |    73914        6  | 16:25.40 |  2:20.42 |     73915    |    84456        7  | 18:46.07 |  2:57.55 |     84457    |    97786        8  | 21:43.62 |  3:00.00 |     97787    |   111286        9  | 24:43.62 |  2:42.03 |    111287    |   123439       10  | 27:25.65 |  2:34.35 |    123440    |   135024       11  | 30:00.25 |  3:31.05 |    135025    |   150854       12  | 33:31.30 |  2:57.20 |    150855    |   164149       13  | 36:28.50 |  3:07.42 |    164150    |   178216       14  | 39:36.17 |  2:44.23 |    178217    |   190539       15  | 42:20.40 |  2:34.25 |    190540    |   202114Range status and errorsSelected range     Filename D:\Эдуард Хиль - Пора любви (Диск 2) (Neva Int 3476).wav     Peak level 99.9 %     Extraction speed 1.1 X     Range quality 99.9 %     Test CRC EF3CAC21     Copy CRC EF3CAC21     Copy OKNo errors occurredAccurateRip summaryTrack  1  not present in databaseTrack  2  not present in databaseTrack  3  not present in databaseTrack  4  not present in databaseTrack  5  not present in databaseTrack  6  not present in databaseTrack  7  not present in databaseTrack  8  not present in databaseTrack  9  not present in databaseTrack 10  not present in databaseTrack 11  not present in databaseTrack 12  not present in databaseTrack 13  not present in databaseTrack 14  not present in databaseTrack 15  not present in databaseNone of the tracks are present in the AccurateRip databaseEnd of status report---- CUETools DB Plugin V2.1.6[CTDB TOCID: OG.e4VqtKHUNE4DuuPH7Ki4lJh4-] disk not present in databaseSubmit result: OG.e4VqtKHUNE4DuuPH7Ki4lJh4- has been uploaded==== Log checksum B3268EE4A90E40E8DC350258C8E2F1F2C3910D764F4B0C2389820DD2DE3A1E36 ====

Спектр

Динамический диапазон (Dynamic Range)

foobar2000 1.3.10 / Замер динамического диапазона (DR) 1.1.1Дата отчёта: 2017-10-01 09:37:58--------------------------------------------------------------------------------Анализ:       Эдуард Хиль / Пора любви (Диск 2)--------------------------------------------------------------------------------DR         Пики            RMS           Продолжительность трека--------------------------------------------------------------------------------DR12      -4.52 дб        -20.83 дб         2:45 01-ХризантемыDR13      -2.36 дб        -18.52 дб         3:25 02-Дорогой длинноюDR13      -4.64 дб        -20.88 дб         4:04 03-СудьбаDR16      -0.01 дб        -21.24 дб         3:23 04-КавалергардыDR15      -3.62 дб        -22.68 дб         2:48 05-Москва златоглаваяDR11     -10.93 дб        -24.83 дб         2:21 06-Девонька милаяDR13      -4.25 дб        -21.12 дб         2:58 07-Ямщик, не гони лошадейDR13      -5.62 дб        -22.42 дб         3:00 08-Гори, гори, моя звездаDR13      -4.68 дб        -23.53 дб         2:42 09-Серёжка ольховаяDR13      -5.80 дб        -21.31 дб         2:34 10-На последнюю пятеркуDR13      -5.84 дб        -22.17 дб         3:31 11-А цыган идетDR13      -6.71 дб        -23.96 дб         2:57 12-Белой акации гроздья душистыеDR14      -6.75 дб        -27.47 дб         3:08 13-Ах, какие сегодня зарницыDR11      -7.00 дб        -22.18 дб         2:44 14-КалинкаDR12      -8.28 дб        -24.86 дб         2:34 15-Утро туманное--------------------------------------------------------------------------------Количество треков:    15Реальные значения DR: DR13Частота:                 44100 ГцКаналов:                 2Бит на сэмпл:    16Битрейт:                 611 кбит/сКодек:                   FLAC================================================================================

Для скачки контента: [Установить программу-клиент] и кликнуть по - Скачать

[asmlocator.ru].t456968.torrent 
Торрент: Зарегистрирован [ 2017-12-04 01:00 ] · BC6519A57234120CFD27EA1F5D8C21CFB97EF998

Скачать .torrent

Скачать

23 KB

Статус: проверено
Скачан: 0 раз
Размер: 529 MB
terms.php
[Профиль] [ЛС]
Показать сообщения:    
Ответить на тему

Текущее время: 13-Дек 19:00

Часовой пояс: UTC ± 0



Вы не можете начинать темы
Вы не можете отвечать на сообщения
Вы не можете редактировать свои сообщения
Вы не можете удалять свои сообщения
Вы не можете голосовать в опросах
Вы не можете прикреплять файлы к сообщениям
Вы можете скачивать файлы