[TR24][OF] Electric Youth - Breathing (Original Motion Picture Soundtrack From A Lost Film) - 2017 (Electronic, New Wave)

Ответить на тему
Статистика раздачи
Размер:  588 MB   |    Зарегистрирован:  9 дней   |    Скачан:  0 раз

Полного источника не было: Никогда

 
   
 
 
Автор Сообщение

star21 ®

Пол: Не указан

Стаж: 2 года 1 месяц

Сообщений: 354215

Создавать темы 03-Дек-2017 22:26

[Цитировать]

Electric Youth / Breathing (Original Motion Picture Soundtrack From A Lost Film) Формат записи/Источник записи: [TR24][OF]
Наличие водяных знаков: Нет
Год издания/переиздания диска: 2017
Жанр: Electronic, New Wave
Издатель (лейбл): Milan Records
Продолжительность: 1:04:57
Наличие сканов в содержимом раздачи: Буклет PDF
Источник (релизер): hdtracksКонтейнер: FLAC (*.flac)
Тип рипа: tracksРазрядность: 24/44,1
Формат: PCM
Количество каналов: 2.0

Треклист

01. This Was Our House (From "Breathing")
02. Where Did You Go
03. Breathing
04. It's Them
05. New Things
06. Machine 2.0
07. In The Air Two
08. Still My Love
09. Here It Is
10. Loni's Goodbye
11. This Was Our House (Reprise)
12. Machine 1.0
13. Sisters Theme
14. They're Still Here
15. What Is It
16. Ether
17. Still My Love (Reprise)
18. In the Air One
19. Believe
20. Nic's Theme
21. Chunnel Pt. 1
22. Dark Truth
23. Chunnel Pt. 2

DR Log

foobar2000 1.1.10 / Dynamic Range Meter 1.1.1log date: 2017-09-26 21:45:17--------------------------------------------------------------------------------Analyzed: Electric Youth / Breathing (Original Motion Picture Soundtrack from a Lost Film)--------------------------------------------------------------------------------DR         Peak         RMS     Duration Track--------------------------------------------------------------------------------DR11      -0.50 dB   -15.20 dB      2:01 ?-This Was Our House (From "Breathing")DR12      -0.50 dB   -14.73 dB      4:05 ?-Where Did You GoDR9       -1.64 dB   -15.44 dB      2:50 ?-BreathingDR9       -0.50 dB   -12.85 dB      4:35 ?-It's ThemDR13      -0.50 dB   -15.44 dB      3:25 ?-New ThingsDR8       -0.50 dB   -13.57 dB      2:43 ?-Machine 2.0DR9       -0.92 dB   -14.06 dB      3:04 ?-In the Air TwoDR11      -0.50 dB   -14.67 dB      3:50 ?-Still My LoveDR7       -0.49 dB   -11.64 dB      2:03 ?-Here It IsDR10      -2.43 dB   -16.71 dB      3:18 ?-Loni's GoodbyeDR14      -1.94 dB   -18.46 dB      2:48 ?-This Was Our House (Reprise)DR10      -3.05 dB   -19.47 dB      2:46 ?-Machine 1.0DR11      -5.90 dB   -20.57 dB      1:39 ?-Sisters ThemeDR12      -0.50 dB   -15.25 dB      1:41 ?-They're Still HereDR9       -8.41 dB   -19.93 dB      2:06 ?-What Is ItDR10      -0.50 dB   -13.80 dB      3:06 ?-EtherDR9       -0.15 dB   -13.03 dB      2:06 ?-Still My Love (Reprise)DR10      -0.49 dB   -16.39 dB      4:04 ?-In the Air OneDR10      -5.82 dB   -19.30 dB      1:14 ?-BelieveDR10      -1.16 dB   -17.39 dB      4:09 ?-Nic's ThemeDR10      -0.50 dB   -14.66 dB      2:14 ?-Chunnel, Pt. 1DR13      -0.55 dB   -18.20 dB      2:11 ?-Dark TruthDR10      -0.54 dB   -16.40 dB      2:59 ?-Chunnel, Pt. 2--------------------------------------------------------------------------------Number of tracks:  23Official DR value: DR10Samplerate:        44100 HzChannels:          2Bits per sample:   24Bitrate:           1168 kbpsCodec:             FLAC================================================================================

Об исполнителе (группе)

“Breathing” is the new album from Electric Youth unlike any other previously released by the group. Initially conceived of as a soundtrack to a film that has since been lost, “Breathing” has become a separate entity independent of its original intent. The music is filled with classic, heavenly strings and delicate piano compositions mixed with ethereal, dream-like female vocals and the signature electronic sound that have made Electric Youth famous. Milan Records will be releasing breathing on CD, digital and vinyl on September 22nd, 2017. “Breathing” marks the latest album in Milan’s eagerly anticipated “Nicolas Winding Refn Presents” series - a line of semi-annual vinyl releases assembled under the guide of director Nicolas Winding Refn,(Drive, The Neon Demon). Electric Youth are frequent collaborators of Refn’s, with him having previously used their music on the soundtrack to Drive and his Neon Demon-inspired “The Wicked Die Young” vinyl compilation album.https://en.wikipedia.org/wiki/Electric_Youth_(band)

Для скачки контента: [Установить программу-клиент] и кликнуть по - Скачать

[asmlocator.ru].t456917.torrent 
Торрент: Зарегистрирован [ 2017-12-03 22:25 ] · BFC6E269AA553B73F1EDA19BCFA72DF3B86E176F

Скачать .torrent

Скачать

13 KB

Статус: проверено
Скачан: 0 раз
Размер: 588 MB
terms.php
[Профиль] [ЛС]
Показать сообщения:    
Ответить на тему

Текущее время: 13-Дек 19:02

Часовой пояс: UTC ± 0



Вы не можете начинать темы
Вы не можете отвечать на сообщения
Вы не можете редактировать свои сообщения
Вы не можете удалять свои сообщения
Вы не можете голосовать в опросах
Вы не можете прикреплять файлы к сообщениям
Вы можете скачивать файлы