Враг народа Бухарин (Леонид Марягин) [1991, драма, биография, VHSRip]

Ответить на тему
Статистика раздачи
Размер:  1,37 GB   |    Зарегистрирован:  10 дней   |    Скачан:  0 раз

Полного источника не было: Никогда

 
   
 
 
Автор Сообщение

star21 ®

Пол: Не указан

Стаж: 2 года 1 месяц

Сообщений: 354215

Создавать темы 03-Дек-2017 15:55

[Цитировать]

Враг народа Бухарин Жанр: драма, биография
Год выпуска: 1991
Продолжительность: 01:36:18Режиссёр: Леонид МарягинВ ролях: Александр Романцов, Сергей Шакуров, Евгений Лазарев, Геннадий Сайфулин, Лев Лемке, Николай Ферапонтов, Георгий Склянский, Марина Либакова-Ливанова, Е. Токарева, Иван Косых, Юрий Михайлов, Леонид Евтифьев, А. Литвинов, Геннадий Чулков, Ян Янакиев, Константин Борисов, Юрий Сосновский, Михаил Езепов, Леонид Тимцуник, Анатолий ГрачёвОписание: Историко-биографический фильм о Николае Бухарине (1888-1938).
Авторы исторической драмы приоткрывают малоизвестную страницу истории -«ложный» процесс над Николаем Бухариным, который стал репетицией главного действа, не замедлившего себя долго ждать. По архивным документам, именно на этом «малом» процессе Бухарин решил полностью изменить его ход и вместо навязанного ему сценария начал говорить правду. Впрочем, попытка эта была обречена. Одновременно с кадрами процесса перед нами проходит жизнь Николая Бухарина — жизнь, обернувшаяся трагедией.Доп. информация: Оцифровка VHS (личный архив) и получение VHSRip alenavova Эксклюзив для rutracker.org. При размещении данного релиза на других сайтах ссылка на автора alenavova обязательна.Релиз Сэмпл: https://yadi.sk/i/dayROMfd3NW9hXКачество видео: VHSRip
Формат видео: AVIВидео: 704x512 (1.38:1), 25 fps, XviD build 73 ~1831 kbps avg, 0.20 bit/pixel
Аудио: 48 kHz, AC3 Dolby Digital, 2/0 (L,R) ch, ~192 kbps

MediaInfo

Враг народа Бухарин [by alenavova].avi
Format : AVI
Format/Info : Audio Video Interleave
File size : 1.37 GiB
Duration : 1 h 36 min
Overall bit rate : 2 034 kb/s
Movie name : Враг народа Бухарин [by alenavova]
Director : by alenavova
Writing application : VirtualDubMod 1.5.10.3 | www.virtualdub-fr.org || (build 2550/release)
Copyright : Edich2
Comment : RuTracker.orgVideo
ID : 0
Format : MPEG-4 Visual
Format profile : Advanced Simple@L5
Format settings, BVOP : 2
Format settings, QPel : No
Format settings, GMC : No warppoints
Format settings, Matrix : Custom
Codec ID : XVID
Codec ID/Hint : XviD
Duration : 1 h 36 min
Bit rate : 1 832 kb/s
Width : 704 pixels
Height : 512 pixels
Display aspect ratio : 1.375
Frame rate : 25.000 FPS
Color space : YUV
Chroma subsampling : 4:2:0
Bit depth : 8 bits
Scan type : Progressive
Compression mode : Lossy
Bits/(Pixel*Frame) : 0.203
Stream size : 1.23 GiB (90%)
Writing library : XviD 73Audio
ID : 1
Format : AC-3
Format/Info : Audio Coding 3
Format settings, Endianness : Big
Codec ID : 2000
Duration : 1 h 36 min
Bit rate mode : Constant
Bit rate : 192 kb/s
Channel(s) : 2 channels
Channel positions : Front: L R
Sampling rate : 48.0 kHz
Frame rate : 31.250 FPS (1536 spf)
Bit depth : 16 bits
Compression mode : Lossy
Stream size : 132 MiB (9%)
Alignment : Split accross interleaves
Interleave, duration : 40 ms (1.00 video frame)
Interleave, preload duratio : 500 ms
Service kind : Complete Main

Скриншоты

Для скачки контента: [Установить программу-клиент] и кликнуть по - Скачать

[asmlocator.ru].t456804.torrent 
Торрент: Зарегистрирован [ 2017-12-03 15:55 ] · FC3A410020C080133C964BB238BC81BCCB99AF53

Скачать .torrent

Скачать

14 KB

Статус: проверено
Скачан: 0 раз
Размер: 1,37 GB
terms.php
[Профиль] [ЛС]
Показать сообщения:    
Ответить на тему

Текущее время: 13-Дек 19:00

Часовой пояс: UTC ± 0



Вы не можете начинать темы
Вы не можете отвечать на сообщения
Вы не можете редактировать свои сообщения
Вы не можете удалять свои сообщения
Вы не можете голосовать в опросах
Вы не можете прикреплять файлы к сообщениям
Вы можете скачивать файлы