[MULT] Приключения Вуди и его друзей / The Woody Woodpecker Show / Серии: 1-196 из 196 (Пол Дж. Смит / Paul J. Smith) [1940-1972, мультфильм, комедия, семейный, DVDRip, SATRip, IPTVRip, TVRip] [3GP, 320x] Dub Selena Int. + 2xAVO + Sub Rus

Ответить на тему
Статистика раздачи
Размер:  3,81 GB   |    Зарегистрирован:  10 дней   |    Скачан:  0 раз

Полного источника не было: Никогда

 
   
 
 
Автор Сообщение

star21 ®

Пол: Не указан

Стаж: 2 года 1 месяц

Сообщений: 354215

Создавать темы 03-Дек-2017 01:21

[Цитировать]

Приключения Вуди и его друзей / The Woody Woodpecker Show Год выпуска: 1940-1972
Страна: США
Жанр: мультфильм, комедия, семейный
Продолжительность: ~ 00:07:00 серия
Перевод: Профессиональный (дублированный) Selena Int., по заказу ОРТ (на большинство серий в раздаче)
Перевод#2: Авторский (одноголосый закадровый) А.Гаврилов, В.Горчаков (на серии №17, 26, 75, 111)
Субтитры: русские, вшитые в видеоряд (только для серии №118)Режиссер: Уолтер Лэнц / Walter LantzОписание: Нет на Земле человека, который не знал бы эту маленькую и невероятно забавную птичку. Угадали, о ком идет речь? Конечно же, о самом знаменитом "стукаче" в мире - легендарном дятле Вуди!У этого сериала масса достоинств — оригинальная анимация, которая отличает его от всех остальных мультфильмов, захватывающие сюжеты и трюки, которые не смогли бы исполнить самые лучшие каскадеры мира. Но в первую очередь, это очень смешной мультик.Качество: DVDRip, SATRip, IPTVRip, TVRip
Формат: 3GP
Видео кодек: MPEG4-Visual
Аудио кодек: AAC
Видео: MPEG4-Visual, 320x240 (4:3), 23.976 fps, 320 Kbps (0.174 bit/pixel)
Аудио: Русский, AAC, 2 ch, 128 Kbps, 48 KHz

TX/MediaInfo

Общее
Полное имя : D:\Раздачи\Woody.Woodpecker.320x\001 - Woody Woodpecker [DVDRip].3gp
Формат : MPEG-4
Профиль формата : 3GPP Media Release 4
Идентификатор кодека : 3gp4 (isom/iso2/3gp4)
Размер файла : 22,5 Мбайт
Продолжительность : 6 м. 57 с.
Режим общего битрейта : Постоянный
Общий поток : 452 Кбит/секВидео
Идентификатор : 1
Формат : MPEG-4 Visual
Профиль формата : Simple@L3
Параметр BVOP формата : Нет
Параметр QPel формата : Нет
Параметр GMC формата : Без точки перехода
Параметр матрицы формата : Default (H.263)
Идентификатор кодека : 20
Продолжительность : 6 м. 57 с.
Вид битрейта : Постоянный
Битрейт : 320 Кбит/сек
Ширина : 320 пикселей
Высота : 240 пикселей
Соотношение сторон : 4:3
Режим частоты кадров : Постоянный
Частота кадров : 23,976 (24000/1001) кадра/сек
Цветовое пространство : YUV
Субдискретизация насыщенности : 4:2:0
Битовая глубина : 8 бит
Тип развёртки : Прогрессивная
Метод сжатия : С потерями
Бит/(Пиксели*Кадры) : 0.174
Размер потока : 15,9 Мбайт (71%)
Библиотека кодирования : XviD 1.2.1 (UTC 2008-12-04)Аудио
Идентификатор : 2
Формат : AAC
Формат/Информация : Advanced Audio Codec
Профиль формата : LC
Идентификатор кодека : 40
Продолжительность : 6 м. 57 с.
Вид битрейта : Постоянный
Битрейт : 128 Кбит/сек
Каналы : 2 канала
Расположение каналов : Front: L R
Частота : 48,0 КГц
Частота кадров : 46,875 кадров/сек (1024 spf)
Метод сжатия : С потерями
Размер потока : 6,38 Мбайт (28%)

Скриншоты

DVDRip:

SATRip:

IPTVRip:

TVRip:
Все 196 серий в одной раздаче!

Для скачки контента: [Установить программу-клиент] и кликнуть по - Скачать

[asmlocator.ru].t456222.torrent 
Торрент: Зарегистрирован [ 2017-12-03 01:20 ] · 4A61382EB763A4A6D1D023C81F879F5018976F2A

Скачать .torrent

Скачать

32 KB

Статус: проверено
Скачан: 0 раз
Размер: 3,81 GB
terms.php
[Профиль] [ЛС]
Показать сообщения:    
Ответить на тему

Текущее время: 13-Дек 19:01

Часовой пояс: UTC ± 0



Вы не можете начинать темы
Вы не можете отвечать на сообщения
Вы не можете редактировать свои сообщения
Вы не можете удалять свои сообщения
Вы не можете голосовать в опросах
Вы не можете прикреплять файлы к сообщениям
Вы можете скачивать файлы