VA Top of the Pops - June 1984 (BBC) [2017, Pop, Rock, Disco, SATRip]

Reply to topic
DL-List and Torrent activity
Size:  1.46 GB   |    Registered:  1 year 5 months   |    Completed:  0 times

Seeder not seen: 11 months 1 day

 
   
 
 
Author Message

star21 ®

Gender: Female

Longevity: 3 years 6 months

Posts: 552208

Location: Екатеринбург

Post 29-Nov-2017 13:26

[Quote]

VA Top of the Pops - June 1984 (BBC) Страна: VA
Жанр: Pop, Rock, Disco
Продолжительность: 01:41:10
Год выпуска: 2017
http://www.bbc.co.uk/programmes/b00704hg/broadcasts/1984/06
Источник: собственный рипКачество: SATRip
Контейнер: MKV
Видео кодек: H.264
Аудио кодек: AC3
Видео: MPEG4 Video (H264) 720x540 1940 kbps 25 fps
Аудио: AC3 128kbps 48kHz 2chОписание:
Top of the Pops (TOTP) — музыкальная программа британского телевидения, выходившая на BBC и транслировавшаяся во многих странах мира. TOTP, своего рода телеверсия национального хит-парада выходила еженедельно с 1 января 1964 года по 30 июля 2006 года. Несмотря на то, что шоу официально закрыто, оно продолжает существовать в рождественской версии.

Треклист

Top of the Pops (7th June 1984)Spandau Ballet – Only When You Leave
Howard Jones – Pearl In The Shell
Evelyn Thomas – High Energy
Bananarama – Rough Justice
Bronski Beat – Smalltown Boy
Wham! – Wake Me Up Before You Go-Go
Sister Sledge – Thinking Of You (credits)Top of the Pops (14th June 1984)The Art Company – Susanna
Elton John – Sad Songs (Say So Much) (promo)
The Smiths – Heaven Knows I'm Miserable Now
Rod Stewart – Infatuation (promo)
Scritti Politti – Absolute
Ozzy Osbourne – So Tired (promo)
Nick Heyward – Love All Day
Nik Kershaw – I Won't Let The Sun Go Down On Me
Frankie Goes To Hollywood – Two Tribes
Michael Jackson – Farewell My Summer Love (credits)Top of the Pops (28th June 1984)The Bluebells – Young At Heart
Nik Kershaw – I Won't Let The Sun Go Down On Me (promo)
The Human League – Life On Your Own
Bob Marley & The Wailers – Waiting In Vain (promo)
(Jonathan King – US chart rundown)
Tina Turner – What's Love Got To Do With It? (promo)
Alison Moyet – Love Resurrection
Scritti Politti – Absolute
Frankie Goes To Hollywood – Two Tribes
Michael Jackson – Farewell My Summer Love (credits)

MediaInfo:

Format : Matroska
Format version : Version 4 / Version 2
File size : 1.46 GiB
Duration : 1 h 29 min
Overall bit rate mode : Variable
Overall bit rate : 2 350 kb/s
Encoded date : UTC 2017-09-02 20:44:28
Writing application : mkvmerge v15.0.0 ('Duel with the Devil') 64-bit
Writing library : libebml v1.3.5 + libmatroska v1.4.5Video
ID : 1
Format : AVC
Format/Info : Advanced Video Codec
Format profile : High@L4.1
Format settings, CABAC : Yes
Format settings, ReFrames : 3 frames
Codec ID : V_MPEG4/ISO/AVC
Duration : 1 h 29 min
Bit rate mode : Variable
Bit rate : 2 220 kb/s
Maximum bit rate : 14.0 Mb/s
Width : 720 pixels
Height : 540 pixels
Display aspect ratio : 4:3
Frame rate mode : Constant
Frame rate : 25.000 FPS
Color space : YUV
Chroma subsampling : 4:2:0
Bit depth : 8 bits
Scan type : Progressive
Bits/(Pixel*Frame) : 0.228
Stream size : 1.35 GiB (93%)
Writing library : x264 core 148 r2744 b97ae06
Encoding settings : cabac=1 / ref=3 / deblock=1:0:0 / analyse=0x3:0x113 / me=hex / subme=7 / psy=1 / psy_rd=1.00:0.00 / mixed_ref=1 / me_range=16 / chroma_me=1 / trellis=1 / 8x8dct=1 / cqm=0 / deadzone=21,11 / fast_pskip=1 / chroma_qp_offset=-2 / threads=17 / lookahead_threads=2 / sliced_threads=0 / slices=4 / nr=0 / decimate=1 / interlaced=0 / bluray_compat=1 / constrained_intra=0 / bframes=3 / b_pyramid=1 / b_adapt=1 / b_bias=0 / direct=1 / weightb=1 / open_gop=1 / weightp=1 / keyint=250 / keyint_min=1 / scenecut=40 / intra_refresh=0 / rc_lookahead=40 / rc=2pass / mbtree=1 / bitrate=2220 / ratetol=1.0 / qcomp=0.60 / qpmin=0 / qpmax=69 / qpstep=4 / cplxblur=20.0 / qblur=0.5 / vbv_maxrate=14000 / vbv_bufsize=14000 / nal_hrd=vbr / filler=0 / ip_ratio=1.40 / aq=1:1.00
Default : Yes
Forced : No
Color range : Limited
Color primaries : BT.709
Transfer characteristics : BT.709
Matrix coefficients : BT.709Audio
ID : 2
Format : AC-3
Format/Info : Audio Coding 3
Format settings, Endianness : Big
Codec ID : A_AC3
Duration : 1 h 29 min
Bit rate mode : Constant
Bit rate : 128 kb/s
Channel(s) : 2 channels
Channel positions : Front: L R
Sampling rate : 48.0 kHz
Frame rate : 31.250 FPS (1536 spf)
Bit depth : 16 bits
Compression mode : Lossy
Stream size : 81.6 MiB (5%)
Service kind : Complete Main
Default : Yes
Forced : NoMenu
00:00:00.000 : :03rd May
00:28:37.600 : :10th May
00:59:07.000 : :17th May

Скриншоты


To download the content you need:
1. Download and install torrent client [for Windows] or for mobile system
2. Click on [Download]
Attention.
If the test YOU are NOT a ROBOT - does not work, then You are using an outdated browser.
Install the current browser and click on [Download]
Security: torrent client is allowed by Kaspersky.

[asmlocator.ru].t452987.torrent 
Torrent: Registered [ 2017-11-29 13:25 ] · 47E879640FF79307E8D1C58141A9B3A37E1545C9

Download .torrent

Download

15 KB

Status: checked
Completed: 0 times
Size: 1.46 GB
terms.php
[Profile] [PM]

yanna

Gender: Male

Longevity: 2 months 15 days

Posts: 1

Location: Екатеринбург

Post 08-Mar-2019 17:38 (after 1 year 3 months)

[Quote]

[Profile] [PM]
Display posts:    
Reply to topic

Current time is: 24-May 14:09

All times are UTC ± 0



You cannot post new topics in this forum
You cannot reply to topics in this forum
You cannot edit your posts in this forum
You cannot delete your posts in this forum
You cannot vote in polls in this forum
You cannot attach files in this forum
You can download files in this forum