Видеокурс - English в стихах и песнях [2006, DVDRip]

Ответить на тему
Статистика раздачи
Размер:  449 MB   |    Зарегистрирован:  15 дней   |    Скачан:  0 раз

Полного источника не было: 7 часов

 
   
 
 
Автор Сообщение

Создавать темы 28-Ноя-2017 12:41

English в стихах и песнях Название: Английский в стихах и песнях
Год выпуска: 2006
Автор: Э.П. Вакс
Жанр: обучающие фильмы для детейОписание:
Видеокурс изучения английского языка. В программе, основываясь на популярных английских стихах и песнях, дети в игровой форме изучают слова, их произношение, правописание и сочетание слов в предложениях.
Все стихи анимированы, а также на фоне анимации преподаватель и дети проделывают несложные движения, характеризующие персонажей стихотворения, что облегчает восприятие и запоминание английских слов.Программа состоит из уроков:
  • The wheels of the bus
  • I am a little teapod
  • The five little monkeys
  • The apple-tree
  • Family
  • Do the exercise
  • Two little eyes to look around
  • An elephant (1)
  • Teddy bear
  • The farmer in the dell
    Релиз и Выпущено: Россия, киностудия «Интеракт»
    Продолжительность: 31:01Рип: DVDRip
    Видео: XviD MPEG-4, 720x544 (1.32:1), 25 fps, 1825 kbps
    Audio: AC3, 48 kHz, 192 kbps, 2/0 (L,R) ch

MediaInfo

Общее
Полное имя : Anglijskie.stihi.RUS.DVDRip.by.gera.avi
Формат : AVI
Формат/Информация : Audio Video Interleave
Размер файла : 449 Мбайт
Продолжительность : 31 м.
Общий поток : 2025 Кбит/сек
Программа кодирования : Nandub v1.0rc2
Библиотека кодирования : Nandub build 1852/releaseВидео
Идентификатор : 0
Формат : MPEG-4 Visual
Профиль формата : Advanced Simple@L5
Параметр BVOP формата : 2
Параметр QPel формата : Нет
Параметр GMC формата : Без точки перехода
Параметр матрицы формата : Default (MPEG)
Режим смешивания : Сжатый битовый поток
Идентификатор кодека : XVID
Идентификатор кодека/Подсказка : XviD
Продолжительность : 31 м.
Битрейт : 1825 Кбит/сек
Ширина : 720 пикселей
Высота : 544 пикселя
Соотношение сторон : 4:3
Частота кадров : 25,000 кадров/сек
Цветовое пространство : YUV
Субдискретизация насыщенности : 4:2:0
Битовая глубина : 8 бит
Тип развёртки : Прогрессивная
Метод сжатия : С потерями
Бит/(Пиксели*Кадры) : 0.186
Размер потока : 405 Мбайт (90%)
Библиотека кодирования : XviD 1.1.2 (UTC 2006-11-01)Аудио
Идентификатор : 1
Формат : AC-3
Формат/Информация : Audio Coding 3
Расширение режима : CM (complete main)
Параметр Endianness формата : Big
Идентификатор кодека : 2000
Продолжительность : 31 м.
Вид битрейта : Постоянный
Битрейт : 192 Кбит/сек
Каналы : 2 канала
Расположение каналов : Front: L R
Частота : 48,0 КГц
Битовая глубина : 16 бит
Метод сжатия : С потерями
Размер потока : 42,6 Мбайт (9%)
Выравнивание : Соединение по промежуткам
Продолжительность промежутка : 64 мс. (1,60 видеокадра)
Время предзагрузки промежутка : 64 мс.

Скриншоты

Для скачки контента: [Установить программу-клиент] и кликнуть по - Скачать

[asmlocator.ru].t451956.torrent 
Торрент: Зарегистрирован [ 2017-11-28 12:40 ] · 2C54596A7FE32172F8FF6ED29FCFDA14536646CB

Скачать .torrent

Скачать

18 KB

Статус: проверено
Скачан: 0 раз
Размер: 449 MB
terms.php
 
Показать сообщения:    
Ответить на тему

Текущее время: 13-Дек 19:01

Часовой пояс: UTC ± 0



Вы не можете начинать темы
Вы не можете отвечать на сообщения
Вы не можете редактировать свои сообщения
Вы не можете удалять свои сообщения
Вы не можете голосовать в опросах
Вы не можете прикреплять файлы к сообщениям
Вы можете скачивать файлы