(Funeral Death/Doom Metal) Suffer Yourself - Ectoplasm - 2016, FLAC (image+.cue), lossless

Ответить на тему
Статистика раздачи
Размер:  410 MB   |    Зарегистрирован:  5 дней   |    Скачан:  0 раз

Полного источника не было: Никогда

 
   
 
 
Автор Сообщение

star21 ®

Пол: Не указан

Стаж: 2 года

Сообщений: 355767

Создавать темы 14-Ноя-2017 18:41

[Цитировать]

Suffer Yourself - Ectoplasm Страна: Sweden
Жанр: Funeral Death/Doom Metal
Год издания: 2016
Производитель диска: Satanath Records / More Hate Productions [SAT165 / MHP 16-213]
Аудиокодек: FLAC (*.flac)
Тип рипа: image+.cue
Битрейт аудио: lossless
Продолжительность: 1:01:13
Источник: Original CD
Сканы: да
Треклист:
01. Ectoplasm (10:32)
02. Abysmal Emptiness (16:30)
03. The Core (7:14)
04. Dead Visions (19:25)
05. Transcend the Void (7:31)

Отчёт ЕАС

Exact Audio Copy V1.1 from 23. June 2015EAC extraction logfile from 14. April 2017, 13:50Suffer Yourself / EctoplasmUsed drive  : ASUS    DRW-1612BL   Adapter: 2  ID: 0Read mode               : SecureUtilize accurate stream : YesDefeat audio cache      : YesMake use of C2 pointers : NoRead offset correction                      : 6Overread into Lead-In and Lead-Out          : NoFill up missing offset samples with silence : YesDelete leading and trailing silent blocks   : NoNull samples used in CRC calculations       : YesUsed interface                              : Installed external ASPI interfaceUsed output format              : User Defined EncoderSelected bitrate                : 128 kBit/sQuality                         : HighAdd ID3 tag                     : NoCommand line compressor         : C:\Program Files\EAC\Exact Audio Copy\Flac\flac.exeAdditional command line options : -V -8 -T "Date=%year%" -T "Genre=%genre%" %source%TOC of the extracted CD     Track |   Start  |  Length  | Start sector | End sector    ---------------------------------------------------------        1  |  0:00.00 | 10:32.00 |         0    |    47399        2  | 10:32.00 | 16:30.00 |     47400    |   121649        3  | 27:02.00 |  7:14.37 |    121650    |   154236        4  | 34:16.37 | 19:25.27 |    154237    |   241638        5  | 53:41.64 |  7:31.00 |    241639    |   275463Range status and errorsSelected range     Filename C:\darkbrides\Suffer Yourself - Ectoplasm.wav     Peak level 100.0 %     Extraction speed 4.7 X     Range quality 100.0 %     Test CRC A107C346     Copy CRC A107C346     Copy OKNo errors occurredAccurateRip summaryTrack  1  not present in databaseTrack  2  not present in databaseTrack  3  not present in databaseTrack  4  not present in databaseTrack  5  not present in databaseNone of the tracks are present in the AccurateRip databaseEnd of status report---- CUETools DB Plugin V2.1.6[CTDB TOCID: V8LstnrXXDEkaZbX9FngSrGQSKI-] disk not present in databaseSubmit result: V8LstnrXXDEkaZbX9FngSrGQSKI- has been uploaded==== Log checksum E124C887E6F99C2AF26D898D3977009E2786A233FC7CAA5BF7F15A057192B126 ====

Для скачки контента: [Установить программу-клиент] и кликнуть по - Скачать

[asmlocator.ru].t437953.torrent 
Торрент: Зарегистрирован [ 2017-11-14 18:40 ] · 9BD3026E57CFE8F5F4D9D68D90FFDB78FEE3BA13

Скачать .torrent

Скачать

17 KB

Статус: проверено
Скачан: 0 раз
Размер: 410 MB
terms.php
[Профиль] [ЛС]
Показать сообщения:    
Ответить на тему

Текущее время: 20-Ноя 15:31

Часовой пояс: UTC ± 0



Вы не можете начинать темы
Вы не можете отвечать на сообщения
Вы не можете редактировать свои сообщения
Вы не можете удалять свои сообщения
Вы не можете голосовать в опросах
Вы не можете прикреплять файлы к сообщениям
Вы можете скачивать файлы