[TR24][OF] Carrie Underwood - Play On - 2009/2014 (Pop, Country)

Ответить на тему
Статистика раздачи
Размер:  585 MB   |    Зарегистрирован:  7 дней   |    Скачан:  0 раз

Полного источника не было: Никогда

 
   
 
 
Автор Сообщение

star21 ®

Пол: Не указан

Стаж: 2 года

Сообщений: 355767

Создавать темы 13-Ноя-2017 05:26

[Цитировать]

Carrie Underwood - Play On Формат записи/Источник записи: [TR24][OF]
Наличие водяных знаков: Нет
Год издания/переиздания диска: 2009/2014
Жанр: Pop, Country
Издатель (лейбл): 19 Recordings Limited/Arista Nashville
Продолжительность: 48:25
Наличие сканов в содержимом раздачи: Буклет PDFТреклист:
01. Cowboy Casanova (3:56)
02. Quitter (3:41)
03. Mama's Song (4:00)
04. Change (3:14)
05. Undo It (2:58)
06. Someday When I Stop Loving You (4:03)
07. Songs Like This (2:38)
08. Temporary Home (4:30)
09. This Time (3:53)
10. Look At Me (feat. Vince Gill) (3:17)
11. Unapologize (4:38)
12. What Can I Say (feat. Sons Of Sylvia) (3:58)
13. Play On (3:39)
 

AllMusic Review by Stephen Thomas Erlewine

Daisy in her hair aside, Carrie Underwood looks flat-out glamorous on the cover of Play On, which is a pretty fair indication of what awaits listeners on her third album. Carrie is still nominally a country artist and sometimes will sing supported by fiddles and steel guitar, but this is crossover pop pure and simple, whether it's the thundering rhythms on the Shania-styled strut "Cowboy Casanova" or the succession of maudlin melodies on the preponderance of power ballads. Many of these overwrought ballads are infused with a heavy-handed social consciousness -- Carrie decries hunger on "Change" and homelessness on "Temporary Home" -- unfortunately reminiscent of Idol Gives Back, and they're not the only AmIdol connection here, as fourth wheel Kara DioGuardi co-wrote the strained sassiness of "Undo It" and the sticky, tacky "Mama's Song" with Underwood herself. Carrie takes a much stronger presence as a writer here, co-authoring seven of the 13 songs, and she's attracted to hookless showstoppers designed to showcase her powerful voice, all glory notes with no glory. When she sticks to tunes written solely by the professionals, Play On does have some slick pleasures, particularly on the breezy "Quitter" and "This Time," songs built on solid melodies and delivered without flash, relying on craft and Carrie's considerable small-town charm -- a gift that remains intact despite the misguided attempt on the rest of Play On as if she's nothing but a diva.
Контейнер: FLAC (*.flac)
Тип рипа: tracksРазрядность: 24/44,1
Количество каналов: 2.0

Лог проверки качества

foobar2000 1.3.9 / Dynamic Range Meter 1.1.1log date: 2017-03-14 16:49:11--------------------------------------------------------------------------------Analyzed: Carrie Underwood / Play On--------------------------------------------------------------------------------DR         Peak         RMS     Duration Track--------------------------------------------------------------------------------DR5       -1.00 dB    -7.18 dB      3:56 01-Cowboy CasanovaDR6       -1.00 dB    -8.23 dB      3:41 02-QuitterDR6       -1.00 dB    -8.51 dB      4:00 03-Mama's SongDR5       -1.00 dB    -8.71 dB      3:14 04-ChangeDR5       -1.00 dB    -7.56 dB      2:58 05-Undo ItDR5       -1.00 dB    -9.19 dB      4:03 06-Someday When I Stop Loving YouDR5       -1.00 dB    -7.39 dB      2:38 07-Songs Like ThisDR6       -1.00 dB    -8.75 dB      4:30 08-Temporary HomeDR6       -1.00 dB    -8.18 dB      3:53 09-This TimeDR6       -1.00 dB    -9.90 dB      3:17 10-Look At Me (feat. Vince Gill)DR5       -1.00 dB    -7.86 dB      4:38 11-UnapologizeDR5       -1.00 dB    -8.61 dB      3:58 12-What Can I Say (feat. Sons Of Sylvia)DR5       -1.00 dB    -7.56 dB      3:39 13-Play On--------------------------------------------------------------------------------Number of tracks:  13Official DR value: DR5Samplerate:        44100 HzChannels:          2Bits per sample:   24Bitrate:           1742 kbpsCodec:             FLAC================================================================================

Скриншот спектра частот

Источник: hdtracks.com

Для скачки контента: [Установить программу-клиент] и кликнуть по - Скачать

[asmlocator.ru].t436265.torrent 
Торрент: Зарегистрирован [ 2017-11-13 05:25 ] · 6A9D32F955198ED520077671CFBC1A56A5091610

Скачать .torrent

Скачать

13 KB

Статус: проверено
Скачан: 0 раз
Размер: 585 MB
terms.php
[Профиль] [ЛС]
Показать сообщения:    
Ответить на тему

Текущее время: 20-Ноя 15:29

Часовой пояс: UTC ± 0



Вы не можете начинать темы
Вы не можете отвечать на сообщения
Вы не можете редактировать свои сообщения
Вы не можете удалять свои сообщения
Вы не можете голосовать в опросах
Вы не можете прикреплять файлы к сообщениям
Вы можете скачивать файлы