(Europop, Synth Pop, Disco) [CD] Modern Talking - Ready For The Mix (2CD) - 2017, FLAC (tracks+.cue), lossless

Ответить на тему
Статистика раздачи
Размер:  864 MB   |    Зарегистрирован:  8 дней   |    Скачан:  0 раз

Полного источника не было: Никогда

 
   
 
 
Автор Сообщение

star21 ®

Пол: Не указан

Стаж: 2 года

Сообщений: 355767

Создавать темы 12-Ноя-2017 09:40

[Цитировать]

Modern Talking - Ready For The Mix (2CD) Жанр: Europop, Synth Pop, Disco
Носитель: CD
Страна-производитель диска (релиза): Europe
Год издания: 2017
Издатель (лейбл): Sony Music
Номер по каталогу: 88985379702
Страна исполнителя (группы): Germany
Аудиокодек: FLAC (*.flac)
Тип рипа: tracks+.cue
Битрейт аудио: lossless
Продолжительность: 01:53:11
Источник (релизер): flac-lossless.
Наличие сканов в содержимом раздачи: да
Треклист:

CD1

01. You’re My Heart, You’re My Soul (7’’ Version) (3:50)
02. You Can Win If You Want (Special Dance Version) (5:19)
03. Cheri, Cheri Lady (Special Dance Version) (4:51)
04. With A Little Love (UK 12” Version) (5:23)
05. Atlantis Is Calling (S.O.S. For Love) (Extended Version) (5:22)
06. Brother Louie (Special Long Version) (5:28)
07. Just We Two (Mona Lisa) (3:58)
08. Geronimo’s Cadillac (Long Vocal Version) (5:03)
09. Lonely Tears In Chinatown (3:31)
10. Jet Airliner (Radio Version) (4:16)
11. In 100 Years… (Part 1) (3:58)
12. Locomotion Tango (3:49)Продолжительность: 00:54:47

Отчёт EAC

EAC extraction logfile from 4. February 2017, 0:21Modern Talking / Ready For The MixUsed drive  : PLEXTOR DVDR   PX-891SA   Adapter: 1  ID: 0Read mode               : SecureUtilize accurate stream : YesDefeat audio cache      : YesMake use of C2 pointers : NoRead offset correction                      : 6Overread into Lead-In and Lead-Out          : NoFill up missing offset samples with silence : YesDelete leading and trailing silent blocks   : NoNull samples used in CRC calculations       : YesUsed interface                              : Native Win32 interface for Win NT & 2000Gap handling                                : Appended to previous trackUsed output format              : User Defined EncoderSelected bitrate                : 1024 kBit/sQuality                         : HighAdd ID3 tag                     : NoCommand line compressor         : C:\Program Files (x86)\Exact Audio Copy\Flac\flac.exeAdditional command line options : -0 -V -T "ARTIST=%artist%" -T "TITLE=%title%" -T "ALBUM=%albumtitle%" -T "DATE=%year%" -T "TRACKNUMBER=%tracknr%" -T "TOTALTRACKS=%numtracks%" -T "GENRE=%genre%" -T "COMMENT=Naftamusic Release!" %source%TOC of the extracted CD     Track |   Start  |  Length  | Start sector | End sector    ---------------------------------------------------------        1  |  0:00.00 |  3:49.66 |         0    |    17240        2  |  3:49.66 |  5:19.02 |     17241    |    41167        3  |  9:08.68 |  4:50.38 |     41168    |    62955        4  | 13:59.31 |  5:22.52 |     62956    |    87157        5  | 19:22.08 |  5:22.28 |     87158    |   111335        6  | 24:44.36 |  5:27.44 |    111336    |   135904        7  | 30:12.05 |  3:58.35 |    135905    |   153789        8  | 34:10.40 |  5:02.53 |    153790    |   176492        9  | 39:13.18 |  3:30.53 |    176493    |   192295       10  | 42:43.71 |  4:16.02 |    192296    |   211497       11  | 46:59.73 |  3:57.49 |    211498    |   229321       12  | 50:57.47 |  3:49.03 |    229322    |   246499Track  1     Filename E:\Nafta Releases\Modern Talking – Ready For The Mix (2 CD 2017)[FLAC] - Naftamusic\CD 1\01 - You’re My Heart, You’re My Soul (7’’ Version).wav     Pre-gap length  0:00:02.00     Peak level 87.0 %     Extraction speed 1.8 X     Track quality 100.0 %     Test CRC 1F9AB6A0     Copy CRC 1F9AB6A0     Track not present in AccurateRip database     Copy OKTrack  2     Filename E:\Nafta Releases\Modern Talking – Ready For The Mix (2 CD 2017)[FLAC] - Naftamusic\CD 1\02 - You Can Win If You Want (Special Dance Version).wav     Peak level 98.8 %     Extraction speed 1.7 X     Track quality 99.9 %     Test CRC 8FA117FF     Copy CRC 8FA117FF     Track not present in AccurateRip database     Copy OKTrack  3     Filename E:\Nafta Releases\Modern Talking – Ready For The Mix (2 CD 2017)[FLAC] - Naftamusic\CD 1\03 - Cheri, Cheri Lady (Special Dance Version).wav     Peak level 98.8 %     Extraction speed 1.8 X     Track quality 99.9 %     Test CRC 9B26D42A     Copy CRC 9B26D42A     Track not present in AccurateRip database     Copy OKTrack  4     Filename E:\Nafta Releases\Modern Talking – Ready For The Mix (2 CD 2017)[FLAC] - Naftamusic\CD 1\04 - With A Little Love (UK 12” Version).wav     Peak level 99.0 %     Extraction speed 2.1 X     Track quality 99.9 %     Test CRC 0D659322     Copy CRC 0D659322     Track not present in AccurateRip database     Copy OKTrack  5     Filename E:\Nafta Releases\Modern Talking – Ready For The Mix (2 CD 2017)[FLAC] - Naftamusic\CD 1\05 - Atlantis Is Calling (S.O.S. For Love) (Extended Version).wav     Peak level 98.8 %     Extraction speed 2.2 X     Track quality 99.9 %     Test CRC 7B4B10E6     Copy CRC 7B4B10E6     Track not present in AccurateRip database     Copy OKTrack  6     Filename E:\Nafta Releases\Modern Talking – Ready For The Mix (2 CD 2017)[FLAC] - Naftamusic\CD 1\06 - Brother Louie (Special Long Version).wav     Peak level 98.8 %     Extraction speed 3.0 X     Track quality 100.0 %     Test CRC 6AFD92FE     Copy CRC 6AFD92FE     Track not present in AccurateRip database     Copy OKTrack  7     Filename E:\Nafta Releases\Modern Talking – Ready For The Mix (2 CD 2017)[FLAC] - Naftamusic\CD 1\07 - Just We Two (Mona Lisa).wav     Peak level 89.0 %     Extraction speed 3.1 X     Track quality 100.0 %     Test CRC 63DFADBF     Copy CRC 63DFADBF     Track not present in AccurateRip database     Copy OKTrack  8     Filename E:\Nafta Releases\Modern Talking – Ready For The Mix (2 CD 2017)[FLAC] - Naftamusic\CD 1\08 - Geronimo’s Cadillac (Long Vocal Version).wav     Peak level 100.0 %     Extraction speed 3.3 X     Track quality 100.0 %     Test CRC 0A9DAA49     Copy CRC 0A9DAA49     Track not present in AccurateRip database     Copy OKTrack  9     Filename E:\Nafta Releases\Modern Talking – Ready For The Mix (2 CD 2017)[FLAC] - Naftamusic\CD 1\09 - Lonely Tears In Chinatown.wav     Peak level 99.2 %     Extraction speed 3.3 X     Track quality 100.0 %     Test CRC 7A7DA6A2     Copy CRC 7A7DA6A2     Track not present in AccurateRip database     Copy OKTrack 10     Filename E:\Nafta Releases\Modern Talking – Ready For The Mix (2 CD 2017)[FLAC] - Naftamusic\CD 1\10 - Jet Airliner (Radio Version).wav     Peak level 97.1 %     Extraction speed 3.5 X     Track quality 100.0 %     Test CRC B7A8889C     Copy CRC B7A8889C     Track not present in AccurateRip database     Copy OKTrack 11     Filename E:\Nafta Releases\Modern Talking – Ready For The Mix (2 CD 2017)[FLAC] - Naftamusic\CD 1\11 - In 100 Years… (Part 1).wav     Peak level 98.8 %     Extraction speed 3.6 X     Track quality 100.0 %     Test CRC 9757C6F9     Copy CRC 9757C6F9     Track not present in AccurateRip database     Copy OKTrack 12     Filename E:\Nafta Releases\Modern Talking – Ready For The Mix (2 CD 2017)[FLAC] - Naftamusic\CD 1\12 - Locomotion Tango.wav     Peak level 100.0 %     Extraction speed 3.6 X     Track quality 100.0 %     Test CRC C126306F     Copy CRC C126306F     Track not present in AccurateRip database     Copy OKNone of the tracks are present in the AccurateRip databaseNo errors occurredEnd of status report==== Log checksum 4AF8B20171697777E9225FE671C146A924F0E56CD4D0E1D5EFAEA8484D7D9811 ====

Содержание индексной карты (.CUE)

REM DATE 2017REM DISCID 940CD60CREM COMMENT "ExactAudioCopy v1.3"PERFORMER "Modern Talking"TITLE "Ready For The Mix"REM COMPOSER ""FILE "01 - You’re My Heart, You’re My Soul (7’’ Version).wav" WAVE  TRACK 01 AUDIO    TITLE "You’re My Heart, You’re My Soul (7’’ Version)"    PERFORMER "Modern Talking"    REM COMPOSER ""    INDEX 01 00:00:00FILE "02 - You Can Win If You Want (Special Dance Version).wav" WAVE  TRACK 02 AUDIO    TITLE "You Can Win If You Want (Special Dance Version)"    PERFORMER "Modern Talking"    REM COMPOSER ""    INDEX 01 00:00:00FILE "03 - Cheri, Cheri Lady (Special Dance Version).wav" WAVE  TRACK 03 AUDIO    TITLE "Cheri, Cheri Lady (Special Dance Version)"    PERFORMER "Modern Talking"    REM COMPOSER ""    INDEX 01 00:00:00FILE "04 - With A Little Love (UK 12” Version).wav" WAVE  TRACK 04 AUDIO    TITLE "With A Little Love (UK 12” Version)"    PERFORMER "Modern Talking"    REM COMPOSER ""    INDEX 01 00:00:00FILE "05 - Atlantis Is Calling (S.O.S. For Love) (Extended Version).wav" WAVE  TRACK 05 AUDIO    TITLE "Atlantis Is Calling (S.O.S. For Love) (Extended Version)"    PERFORMER "Modern Talking"    REM COMPOSER ""    INDEX 01 00:00:00FILE "06 - Brother Louie (Special Long Version).wav" WAVE  TRACK 06 AUDIO    TITLE "Brother Louie (Special Long Version)"    PERFORMER "Modern Talking"    REM COMPOSER ""    INDEX 01 00:00:00FILE "07 - Just We Two (Mona Lisa).wav" WAVE  TRACK 07 AUDIO    TITLE "Just We Two (Mona Lisa)"    PERFORMER "Modern Talking"    REM COMPOSER ""    INDEX 01 00:00:00FILE "08 - Geronimo’s Cadillac (Long Vocal Version).wav" WAVE  TRACK 08 AUDIO    TITLE "Geronimo’s Cadillac (Long Vocal Version)"    PERFORMER "Modern Talking"    REM COMPOSER ""    INDEX 01 00:00:00FILE "09 - Lonely Tears In Chinatown.wav" WAVE  TRACK 09 AUDIO    TITLE "Lonely Tears In Chinatown"    PERFORMER "Modern Talking"    REM COMPOSER ""    INDEX 01 00:00:00FILE "10 - Jet Airliner (Radio Version).wav" WAVE  TRACK 10 AUDIO    TITLE "Jet Airliner (Radio Version)"    PERFORMER "Modern Talking"    REM COMPOSER ""    INDEX 01 00:00:00FILE "11 - In 100 Years… (Part 1).wav" WAVE  TRACK 11 AUDIO    TITLE "In 100 Years… (Part 1)"    PERFORMER "Modern Talking"    REM COMPOSER ""    INDEX 01 00:00:00FILE "12 - Locomotion Tango.wav" WAVE  TRACK 12 AUDIO    TITLE "Locomotion Tango"    PERFORMER "Modern Talking"    REM COMPOSER ""    INDEX 01 00:00:00

CD2

01. You’re My Heart, You’re My Soul (Modern Talking Mix ’98) (3:51)
02. You Are Not Alone feat. Eric Singleton (Video Version) (3:24)
03. Sexy Sexy Lover feat. Eric Singleton (Rap Version) (3:04)
04. China In Her Eyes (Vocal Version) (3:45)
05. Don’t Take Away My Heart (New Vocal Version) (3:55)
06. Win The Race (Radio Edit) (3:35)
07. Last Exit To Brooklyn (Radio Edit) (3:16)
08. Ready For The Victory (Alternative Radio Version) (3:16)
09. Juliet (3:37)
10. TV Makes The Superstar (Extended) (5:04)
11. Space Mix ’98 feat. Eric Singleton (Long Version) (21:36)Продолжительность: 00:58:24

Отчёт EAC

Exact Audio Copy V1.3 from 2. September 2016EAC extraction logfile from 4. February 2017, 1:41Modern Talking / Ready For The MixUsed drive  : PLEXTOR DVDR   PX-891SA   Adapter: 1  ID: 0Read mode               : SecureUtilize accurate stream : YesDefeat audio cache      : YesMake use of C2 pointers : NoRead offset correction                      : 6Overread into Lead-In and Lead-Out          : NoFill up missing offset samples with silence : YesDelete leading and trailing silent blocks   : NoNull samples used in CRC calculations       : YesUsed interface                              : Native Win32 interface for Win NT & 2000Gap handling                                : Appended to previous trackUsed output format              : User Defined EncoderSelected bitrate                : 1024 kBit/sQuality                         : HighAdd ID3 tag                     : NoCommand line compressor         : C:\Program Files (x86)\Exact Audio Copy\Flac\flac.exeAdditional command line options : -0 -V -T "ARTIST=%artist%" -T "TITLE=%title%" -T "ALBUM=%albumtitle%" -T "DATE=%year%" -T "TRACKNUMBER=%tracknr%" -T "TOTALTRACKS=%numtracks%" -T "GENRE=%genre%" -T "COMMENT=Naftamusic Release!" %source%TOC of the extracted CD     Track |   Start  |  Length  | Start sector | End sector    ---------------------------------------------------------        1  |  0:00.00 |  3:50.63 |         0    |    17312        2  |  3:50.63 |  3:24.35 |     17313    |    32647        3  |  7:15.23 |  3:04.23 |     32648    |    46470        4  | 10:19.46 |  3:45.03 |     46471    |    63348        5  | 14:04.49 |  3:54.54 |     63349    |    80952        6  | 17:59.28 |  3:35.22 |     80953    |    97099        7  | 21:34.50 |  3:16.27 |     97100    |   111826        8  | 24:51.02 |  3:15.70 |    111827    |   126521        9  | 28:06.72 |  3:37.30 |    126522    |   142826       10  | 31:44.27 |  5:03.45 |    142827    |   165596       11  | 36:47.72 | 21:36.21 |    165597    |   262817Track  1     Filename E:\Nafta Releases\Modern Talking – Ready For The Mix (2 CD 2017)[FLAC] - Naftamusic\CD 2\01 - You’re My Heart, You’re My Soul (Modern Talking Mix ’98).wav     Pre-gap length  0:00:02.00     Peak level 99.0 %     Extraction speed 1.9 X     Track quality 100.0 %     Test CRC 1FC06299     Copy CRC 1FC06299     Track not present in AccurateRip database     Copy OKTrack  2     Filename E:\Nafta Releases\Modern Talking – Ready For The Mix (2 CD 2017)[FLAC] - Naftamusic\CD 2\02 - You Are Not Alone feat. Eric Singleton (Video Version).wav     Peak level 99.0 %     Extraction speed 2.0 X     Track quality 100.0 %     Test CRC 16B53B64     Copy CRC 16B53B64     Track not present in AccurateRip database     Copy OKTrack  3     Filename E:\Nafta Releases\Modern Talking – Ready For The Mix (2 CD 2017)[FLAC] - Naftamusic\CD 2\03 - Sexy Sexy Lover feat. Eric Singleton (Rap Version).wav     Peak level 99.0 %     Extraction speed 2.1 X     Track quality 100.0 %     Test CRC 50A08D0C     Copy CRC 50A08D0C     Track not present in AccurateRip database     Copy OKTrack  4     Filename E:\Nafta Releases\Modern Talking – Ready For The Mix (2 CD 2017)[FLAC] - Naftamusic\CD 2\04 - China In Her Eyes (Vocal Version).wav     Peak level 88.3 %     Extraction speed 2.4 X     Track quality 100.0 %     Test CRC 514A329C     Copy CRC 514A329C     Track not present in AccurateRip database     Copy OKTrack  5     Filename E:\Nafta Releases\Modern Talking – Ready For The Mix (2 CD 2017)[FLAC] - Naftamusic\CD 2\05 - Don’t Take Away My Heart (New Vocal Version).wav     Peak level 99.0 %     Extraction speed 1.9 X     Track quality 99.9 %     Test CRC 11829C73     Copy CRC 11829C73     Track not present in AccurateRip database     Copy OKTrack  6     Filename E:\Nafta Releases\Modern Talking – Ready For The Mix (2 CD 2017)[FLAC] - Naftamusic\CD 2\06 - Win The Race (Radio Edit).wav     Peak level 69.0 %     Extraction speed 2.6 X     Track quality 100.0 %     Test CRC 968AFD64     Copy CRC 968AFD64     Track not present in AccurateRip database     Copy OKTrack  7     Filename E:\Nafta Releases\Modern Talking – Ready For The Mix (2 CD 2017)[FLAC] - Naftamusic\CD 2\07 - Last Exit To Brooklyn (Radio Edit).wav     Peak level 99.0 %     Extraction speed 2.7 X     Track quality 100.0 %     Test CRC 1B402ED4     Copy CRC 1B402ED4     Track not present in AccurateRip database     Copy OKTrack  8     Filename E:\Nafta Releases\Modern Talking – Ready For The Mix (2 CD 2017)[FLAC] - Naftamusic\CD 2\08 - Ready For The Victory (Alternative Radio Version).wav     Peak level 100.0 %     Extraction speed 2.8 X     Track quality 100.0 %     Test CRC A5916617     Copy CRC A5916617     Track not present in AccurateRip database     Copy OKTrack  9     Filename E:\Nafta Releases\Modern Talking – Ready For The Mix (2 CD 2017)[FLAC] - Naftamusic\CD 2\09 - Juliet.wav     Peak level 99.0 %     Extraction speed 3.0 X     Track quality 100.0 %     Test CRC A436686E     Copy CRC A436686E     Track not present in AccurateRip database     Copy OKTrack 10     Filename E:\Nafta Releases\Modern Talking – Ready For The Mix (2 CD 2017)[FLAC] - Naftamusic\CD 2\10 - TV Makes The Superstar (Extended).wav     Peak level 100.0 %     Extraction speed 3.3 X     Track quality 100.0 %     Test CRC C66E3ABC     Copy CRC C66E3ABC     Track not present in AccurateRip database     Copy OKTrack 11     Filename E:\Nafta Releases\Modern Talking – Ready For The Mix (2 CD 2017)[FLAC] - Naftamusic\CD 2\11 - Space Mix ’98 feat. Eric Singleton (Long Version).wav     Peak level 99.0 %     Extraction speed 4.0 X     Track quality 100.0 %     Test CRC E4A4166F     Copy CRC E4A4166F     Track not present in AccurateRip database     Copy OKNone of the tracks are present in the AccurateRip databaseNo errors occurredEnd of status report==== Log checksum 071164747EBCF4CF07A637F3B56082E045685D5A88EE2CAD9381D09652120AF8

Содержание индексной карты (.CUE)

REM GENRE DiscoREM DATE 2017REM DISCID 930DB00BREM COMMENT "ExactAudioCopy v1.3"PERFORMER "Modern Talking"TITLE "Ready For The Mix"REM COMPOSER ""FILE "01 - You’re My Heart, You’re My Soul (Modern Talking Mix ’98).wav" WAVE  TRACK 01 AUDIO    TITLE "You’re My Heart, You’re My Soul (Modern Talking Mix ’98)"    PERFORMER "Modern Talking"    REM COMPOSER ""    INDEX 01 00:00:00FILE "02 - You Are Not Alone feat. Eric Singleton (Video Version).wav" WAVE  TRACK 02 AUDIO    TITLE "You Are Not Alone feat. Eric Singleton (Video Version)"    PERFORMER "Modern Talking"    REM COMPOSER ""    INDEX 01 00:00:00FILE "03 - Sexy Sexy Lover feat. Eric Singleton (Rap Version).wav" WAVE  TRACK 03 AUDIO    TITLE "Sexy Sexy Lover feat. Eric Singleton (Rap Version)"    PERFORMER "Modern Talking"    REM COMPOSER ""    INDEX 01 00:00:00FILE "04 - China In Her Eyes (Vocal Version).wav" WAVE  TRACK 04 AUDIO    TITLE "China In Her Eyes (Vocal Version)"    PERFORMER "Modern Talking"    REM COMPOSER ""    INDEX 01 00:00:00FILE "05 - Don’t Take Away My Heart (New Vocal Version).wav" WAVE  TRACK 05 AUDIO    TITLE "Don’t Take Away My Heart (New Vocal Version)"    PERFORMER "Modern Talking"    REM COMPOSER ""    INDEX 01 00:00:00FILE "06 - Win The Race (Radio Edit).wav" WAVE  TRACK 06 AUDIO    TITLE "Win The Race (Radio Edit)"    PERFORMER "Modern Talking"    REM COMPOSER ""    INDEX 01 00:00:00FILE "07 - Last Exit To Brooklyn (Radio Edit).wav" WAVE  TRACK 07 AUDIO    TITLE "Last Exit To Brooklyn (Radio Edit)"    PERFORMER "Modern Talking"    REM COMPOSER ""    INDEX 01 00:00:00FILE "08 - Ready For The Victory (Alternative Radio Version).wav" WAVE  TRACK 08 AUDIO    TITLE "Ready For The Victory (Alternative Radio Version)"    PERFORMER "Modern Talking"    REM COMPOSER ""    INDEX 01 00:00:00FILE "09 - Juliet.wav" WAVE  TRACK 09 AUDIO    TITLE "Juliet"    PERFORMER "Modern Talking"    REM COMPOSER ""    INDEX 01 00:00:00FILE "10 - TV Makes The Superstar (Extended).wav" WAVE  TRACK 10 AUDIO    TITLE "TV Makes The Superstar (Extended)"    PERFORMER "Modern Talking"    REM COMPOSER ""    INDEX 01 00:00:00FILE "11 - Space Mix ’98 feat. Eric Singleton (Long Version).wav" WAVE  TRACK 11 AUDIO    TITLE "Space Mix ’98 feat. Eric Singleton (Long Version)"    PERFORMER "Modern Talking"    REM COMPOSER ""    INDEX 01 00:00:00
https://www.discogs.com/Modern-Talking-Ready-For-The-Mix/release/9781122

Для скачки контента: [Установить программу-клиент] и кликнуть по - Скачать

[asmlocator.ru].t435516.torrent 
Торрент: Зарегистрирован [ 2017-11-12 09:40 ] · 9A1CEB30C1BD1D5C78E792A53903C0EDE1A8A1F0

Скачать .torrent

Скачать

20 KB

Статус: проверено
Скачан: 0 раз
Размер: 864 MB
terms.php
[Профиль] [ЛС]
Показать сообщения:    
Ответить на тему

Текущее время: 20-Ноя 15:27

Часовой пояс: UTC ± 0



Вы не можете начинать темы
Вы не можете отвечать на сообщения
Вы не можете редактировать свои сообщения
Вы не можете удалять свои сообщения
Вы не можете голосовать в опросах
Вы не можете прикреплять файлы к сообщениям
Вы можете скачивать файлы