(Jpop, Folk, Electronic) [CD] Akeboshi - Akeboshi - 2005, FLAC (tracks), lossless

Ответить на тему
Статистика раздачи
Размер:  334 MB   |    Зарегистрирован:  8 дней   |    Скачан:  0 раз

Полного источника не было: 23 часа

 
   
 
 
Автор Сообщение

star21 ®

Пол: Не указан

Стаж: 2 года

Сообщений: 355767

Создавать темы 11-Ноя-2017 18:55

[Цитировать]

Akeboshi / Akeboshi Жанр: Jpop, Folk, Electronic
Носитель: CD
Год издания: 2005
Издатель (лейбл): Epic
Страна исполнителя (группы): Япония
Аудиокодек: FLAC (*.flac)
Тип рипа: tracks
Битрейт аудио: lossless
Продолжительность: 58:06
Источник (релизер): ledlemos08
Наличие сканов в содержимом раздачи: нет
Треклист:
01 Wind
02 Night and day
03 Hey there
04 No wish
05 秋風のうた
06 廃墟のソファ
07 A nine days' wonder
08 White reply
09 Faerie punks
10 Morning high
11 Tall boy
12 The audience
13 神様の舌打ち / 時の舟

Лог проверки качества

Exact Audio Copy V1.3 from 2. September 2016EAC extraction logfile from 3. April 2017, 12:08Akeboshi / AkeboshiUsed drive  : HL-DT-STBD-RE  WH14NS40   Adapter: 1  ID: 0Read mode               : SecureUtilize accurate stream : YesDefeat audio cache      : YesMake use of C2 pointers : NoRead offset correction                      : 6Overread into Lead-In and Lead-Out          : NoFill up missing offset samples with silence : YesDelete leading and trailing silent blocks   : NoNull samples used in CRC calculations       : YesUsed interface                              : Native Win32 interface for Win NT & 2000Gap handling                                : Not detected, thus appended to previous trackUsed output format              : User Defined EncoderSelected bitrate                : 768 kBit/sQuality                         : HighAdd ID3 tag                     : NoCommand line compressor         : C:\Program Files (x86)\Exact Audio Copy\FLAC\FLAC.EXEAdditional command line options : -6 -V -T "ARTIST=%artist%" -T "TITLE=%title%" -T "ALBUM=%albumtitle%" -T "DATE=%year%" -T "TRACKNUMBER=%tracknr%" -T "GENRE=%genre%" -T "COMMENT=%comment%" -T "BAND=%albuminterpret%" -T "ALBUMARTIST=%albuminterpret%" -T "COMPOSER=%composer%" %haslyrics%--tag-from-file=LYRICS="%lyricsfile%"%haslyrics% -T "DISCNUMBER=%cdnumber%" -T "TOTALDISCS=%totalcds%" -T "TOTALTRACKS=%numtracks%" %hascover%--picture="%coverfile%"%hascover% %source% -o %dest%TOC of the extracted CD     Track |   Start  |  Length  | Start sector | End sector    ---------------------------------------------------------        1  |  0:00.00 |  3:40.45 |         0    |    16544        2  |  3:40.45 |  3:23.00 |     16545    |    31769        3  |  7:03.45 |  4:58.72 |     31770    |    54191        4  | 12:02.42 |  3:05.35 |     54192    |    68101        5  | 15:08.02 |  3:12.73 |     68102    |    82574        6  | 18:21.00 |  5:02.45 |     82575    |   105269        7  | 23:23.45 |  5:12.18 |    105270    |   128687        8  | 28:35.63 |  4:32.07 |    128688    |   149094        9  | 33:07.70 |  3:11.18 |    149095    |   163437       10  | 36:19.13 |  4:43.40 |    163438    |   184702       11  | 41:02.53 |  4:16.27 |    184703    |   203929       12  | 45:19.05 |  4:06.20 |    203930    |   222399       13  | 49:25.25 |  8:40.67 |    222400    |   261466Track  1     Filename G:\Led\01 Wind.wav     Peak level 100.0 %     Extraction speed 0.6 X     Track quality 100.0 %     Copy CRC 9ACBC643     Copy OKTrack  2     Filename G:\Led\02 Night And Day.wav     Peak level 100.0 %     Extraction speed 0.7 X     Track quality 100.0 %     Copy CRC DB283ED2     Copy OKTrack  3     Filename G:\Led\03 Hey There.wav     Peak level 98.2 %     Extraction speed 0.7 X     Track quality 100.0 %     Copy CRC 2C9E4BA1     Copy OKTrack  4     Filename G:\Led\04 No Wish.wav     Peak level 100.0 %     Extraction speed 0.8 X     Track quality 100.0 %     Copy CRC F5889150     Copy OKTrack  5     Filename G:\Led\05 秋風のうた (Song Of The Autumn Wind).wav     Peak level 96.2 %     Extraction speed 0.9 X     Track quality 100.0 %     Copy CRC D3AD9003     Copy OKTrack  6     Filename G:\Led\06 廃墟のソファ (Sofa In A Ruin).wav     Peak level 93.0 %     Extraction speed 0.9 X     Track quality 100.0 %     Copy CRC E65D80D0     Copy OKTrack  7     Filename G:\Led\07 A Nine Days' Wonder.wav     Peak level 63.6 %     Extraction speed 1.0 X     Track quality 100.0 %     Copy CRC 8F86F20C     Copy OKTrack  8     Filename G:\Led\08 White Reply.wav     Peak level 94.1 %     Extraction speed 1.0 X     Track quality 100.0 %     Copy CRC CE658EAF     Copy OKTrack  9     Filename G:\Led\09 Faerie Punks.wav     Peak level 100.0 %     Extraction speed 1.1 X     Track quality 100.0 %     Copy CRC A7E305E0     Copy OKTrack 10     Filename G:\Led\10 Morning High.wav     Peak level 100.0 %     Extraction speed 1.1 X     Track quality 100.0 %     Copy CRC A7D0954C     Copy OKTrack 11     Filename G:\Led\11 Tall Boy.wav     Peak level 99.5 %     Extraction speed 1.2 X     Track quality 100.0 %     Copy CRC DB6D7081     Copy OKTrack 12     Filename G:\Led\12 The Audience.wav     Peak level 100.0 %     Extraction speed 1.2 X     Track quality 100.0 %     Copy CRC 77893A00     Copy OKTrack 13     Filename G:\Led\13 時の舟 (Ship Of Time).wav     Peak level 100.0 %     Extraction speed 1.3 X     Track quality 100.0 %     Copy CRC 9C216A55     Copy OKNo errors occurredEnd of status report

Для скачки контента: [Установить программу-клиент] и кликнуть по - Скачать

[asmlocator.ru].t434934.torrent 
Торрент: Зарегистрирован [ 2017-11-11 18:55 ] · 1593CA3B671695257FD8DD44987E485A365A563D

Скачать .torrent

Скачать

14 KB

Статус: проверено
Скачан: 0 раз
Размер: 334 MB
terms.php
[Профиль] [ЛС]
Показать сообщения:    
Ответить на тему

Текущее время: 20-Ноя 15:30

Часовой пояс: UTC ± 0



Вы не можете начинать темы
Вы не можете отвечать на сообщения
Вы не можете редактировать свои сообщения
Вы не можете удалять свои сообщения
Вы не можете голосовать в опросах
Вы не можете прикреплять файлы к сообщениям
Вы можете скачивать файлы