(Pop) [CD] Лили Иванова - Илюзия, наречена любов - 2003, FLAC (tracks+.cue), lossless

Ответить на тему
Статистика раздачи
Размер:  345 MB   |    Зарегистрирован:  9 дней   |    Скачан:  0 раз

Полного источника не было: Никогда

 
   
 
 
Автор Сообщение

star21 ®

Пол: Не указан

Стаж: 2 года

Сообщений: 355767

Создавать темы 10-Ноя-2017 19:11

[Цитировать]

Лили Иванова / Илюзия, наречена любов Жанр: Pop
Носитель: CD
Страна-производитель диска (релиза): Болгария
Год издания: 2003
Издатель (лейбл): StefKos Music
Номер по каталогу: SM0312073
Страна исполнителя (группы): Болгария
Аудиокодек: FLAC (*.flac)
Тип рипа: tracks+.cue
Битрейт аудио: lossless
Продолжительность: 00:53:58.40
Источник (релизер): собственный рип
Наличие сканов в содержимом раздачи: да
Замечание: К торента приложен буклет из сканированных изображений - в виде электронной книги в формате PDF.https://www.youtube.com/user/LiliIvanovaOfficialТреклист:
01. Девет кръга - м.ар.Митко Щерев, т.Иля Велчев
02. Илюзия, наречена любов - м.ар.Светослав Заров, т.Александър Петров
03. Сенки в нощта - м.Илия Ангелов, т.Александър Петров, ар.Иван Лечев
04. Лодка ли е любовта - м.Морис Аладжем, т.Кръстьо Станишев, ар.Сигнал
05. Точно за това - м.Илия Ангелов, т.Александър Петров, ар.Иван Лечев
06. Щрих - м.Александър Кипров, т.Александър Петров, ар.Емил Бояджиев
07. Ветре, клех те - българска градска песен, ар.Александър Кипров
08. Покруса (версия 2003) - м.Александър Кипров, т.Дамян Дамянов, ар.Иван Лечев
09. Маската - м.Веселин Тодоров, т.Александър Петров, ар.Иван Лечев
10. Плачейки в нощта - м.ар.Александър Кипров, т.Моника Симеонова
11. Влюбеният джаз (версия 2003) - м.т.Сашо Събев, ар.Георги Борисов
12. Девет кръга (инструментал) - м.ар.Митко Щерев
13. Сенки в нощта (инструментал) - м.Илия Ангелов, ар.Иван Лечев

Лог создания рипа

Exact Audio Copy V1.3 from 2. September 2016Отчет на EAC за извличане, извършено на 2. май 2017, 18:01Лили Иванова / Илюзия, наречена любовИзползвано устройство  : PLEXTOR DVDR   PX-L890SA   Adapter: 1  ID: 1Режим на четене            : НадежденИзползване на точен поток  : ДаИзключено аудио кеширане   : ДаИзползване на C2 показалци : НеОфсет корекция при четене                      : 6Препрочитане на секторите Lead-In и Lead-Out   : НеЗапълване на липсващи офсет семпли с тишина    : ДаИзтриване на блокове тишина в началото и края  : НеИзползване на нулеви семпли при CRC изчисления : ДаИзползван интерфейс                            : Вграден Win32 интерфейс за Win NT & 2000Управление на празнини                         : Прикачени към предишния тракИзползван изходен формат    : Енкодер Дефиниран от ПотребителяИзбран битрейт              : 896 kBit/sКачество                    : ВисокоДобави ID3 таг              : ДаКонзолен компресор          : C:\Program Files\Exact Audio Copy\Flac\flac.exeДопълнителни конзолни опции : -V -8 -T "Genre=%genre%" -T "Artist=%artist%" -T "Title=%title%" -T "Album=%albumtitle%" -T "Date=%year%" -T "Tracknumber=%tracknr%" -T "Comment=%comment%" %source%TOC на извлечения CD     Трак |  Начало  |  Дължина | Начален сектор | Краен сектор    ------------------------------------------------------------       1  |  0:00.00 |  4:08.08 |          0     |     18607       2  |  4:08.08 |  4:55.24 |      18608     |     40756       3  |  9:03.32 |  3:48.69 |      40757     |     57925       4  | 12:52.26 |  3:57.70 |      57926     |     75770       5  | 16:50.21 |  4:48.27 |      75771     |     97397       6  | 21:38.48 |  3:55.05 |      97398     |    115027       7  | 25:33.53 |  5:37.26 |     115028     |    140328       8  | 31:11.04 |  4:19.42 |     140329     |    159795       9  | 35:30.46 |  4:32.66 |     159796     |    180261      10  | 40:03.37 |  3:04.22 |     180262     |    194083      11  | 43:07.59 |  2:57.56 |     194084     |    207414      12  | 46:05.40 |  4:07.26 |     207415     |    225965      13  | 50:12.66 |  3:45.49 |     225966     |    242889Трак  1     Име на файл E:\Зарубежная поп-музыка\Лили Иванова - Илюзия, наречена любов 2003\01 Девет кръга.wav     Дължина на предпразнина  0:00:02.00     Пиково ниво 69.1 %     Скорост на извличане 3.6 X     Качество на трака 100.0 %     Тестван CRC E2C60167     Копиран CRC E2C60167     Точно извличане (достоверност 1)  [73CD3200]  (AR v1)     Копиране OKТрак  2     Име на файл E:\Зарубежная поп-музыка\Лили Иванова - Илюзия, наречена любов 2003\02 Илюзия, наречена любов.wav     Дължина на предпразнина  0:00:02.00     Пиково ниво 96.5 %     Скорост на извличане 4.1 X     Качество на трака 100.0 %     Тестван CRC CC56770E     Копиран CRC CC56770E     Точно извличане (достоверност 1)  [4CDA0811]  (AR v1)     Копиране OKТрак  3     Име на файл E:\Зарубежная поп-музыка\Лили Иванова - Илюзия, наречена любов 2003\03 Сенки в нощта.wav     Дължина на предпразнина  0:00:02.00     Пиково ниво 96.5 %     Скорост на извличане 4.3 X     Качество на трака 100.0 %     Тестван CRC 53C7F6BB     Копиран CRC 53C7F6BB     Точно извличане (достоверност 1)  [BD28D3A4]  (AR v1)     Копиране OKТрак  4     Име на файл E:\Зарубежная поп-музыка\Лили Иванова - Илюзия, наречена любов 2003\04 Лодка ли е любовта.wav     Дължина на предпразнина  0:00:02.00     Пиково ниво 88.3 %     Скорост на извличане 4.6 X     Качество на трака 100.0 %     Тестван CRC D3658BE2     Копиран CRC D3658BE2     Тракът не е в базата данни на AccurateRip     Копиране OKТрак  5     Име на файл E:\Зарубежная поп-музыка\Лили Иванова - Илюзия, наречена любов 2003\05 Точно за това.wav     Дължина на предпразнина  0:00:02.00     Пиково ниво 100.0 %     Скорост на извличане 5.0 X     Качество на трака 100.0 %     Тестван CRC 21398B3E     Копиран CRC 21398B3E     Тракът не е в базата данни на AccurateRip     Копиране OKТрак  6     Име на файл E:\Зарубежная поп-музыка\Лили Иванова - Илюзия, наречена любов 2003\06 Щрих.wav     Дължина на предпразнина  0:00:02.00     Пиково ниво 96.5 %     Скорост на извличане 4.1 X     Качество на трака 99.9 %     Тестван CRC 92564441     Копиран CRC 92564441     Тракът не е в базата данни на AccurateRip     Копиране OKТрак  7     Име на файл E:\Зарубежная поп-музыка\Лили Иванова - Илюзия, наречена любов 2003\07 Ветре, клех те.wav     Дължина на предпразнина  0:00:02.00     Пиково ниво 96.5 %     Скорост на извличане 5.6 X     Качество на трака 100.0 %     Тестван CRC 4ACCEFCD     Копиран CRC 4ACCEFCD     Точно извличане (достоверност 1)  [081B244A]  (AR v1)     Копиране OKТрак  8     Име на файл E:\Зарубежная поп-музыка\Лили Иванова - Илюзия, наречена любов 2003\08 Покруса (Version 2003).wav     Дължина на предпразнина  0:00:02.00     Пиково ниво 96.5 %     Скорост на извличане 5.7 X     Качество на трака 100.0 %     Тестван CRC F8CCB1D1     Копиран CRC F8CCB1D1     Тракът не е в базата данни на AccurateRip     Копиране OKТрак  9     Име на файл E:\Зарубежная поп-музыка\Лили Иванова - Илюзия, наречена любов 2003\09 Маската.wav     Дължина на предпразнина  0:00:02.00     Пиково ниво 96.5 %     Скорост на извличане 4.9 X     Качество на трака 99.9 %     Тестван CRC E2447DE7     Копиран CRC E2447DE7     Точно извличане (достоверност 1)  [EE9C38B0]  (AR v1)     Копиране OKТрак 10     Име на файл E:\Зарубежная поп-музыка\Лили Иванова - Илюзия, наречена любов 2003\10 Плачейки в нощта.wav     Дължина на предпразнина  0:00:02.00     Пиково ниво 96.6 %     Скорост на извличане 5.7 X     Качество на трака 100.0 %     Тестван CRC ADA45F18     Копиран CRC ADA45F18     Тракът не е в базата данни на AccurateRip     Копиране OKТрак 11     Име на файл E:\Зарубежная поп-музыка\Лили Иванова - Илюзия, наречена любов 2003\11 Влюбеният Jazz (2003).wav     Дължина на предпразнина  0:00:02.00     Пиково ниво 100.0 %     Скорост на извличане 5.9 X     Качество на трака 100.0 %     Тестван CRC 5350EE51     Копиран CRC 5350EE51     Точно извличане (достоверност 1)  [0244E0BC]  (AR v1)     Копиране OKТрак 12     Име на файл E:\Зарубежная поп-музыка\Лили Иванова - Илюзия, наречена любов 2003\12 Девет кръга (инструментал).wav     Дължина на предпразнина  0:00:02.00     Пиково ниво 77.6 %     Скорост на извличане 5.1 X     Качество на трака 99.9 %     Тестван CRC 56E617CC     Копиран CRC 56E617CC     Тракът не е в базата данни на AccurateRip     Копиране OKТрак 13     Име на файл E:\Зарубежная поп-музыка\Лили Иванова - Илюзия, наречена любов 2003\13 Сенки в нощта (инструментал).wav     Дължина на предпразнина  0:00:02.00     Пиково ниво 76.6 %     Скорост на извличане 6.4 X     Качество на трака 100.0 %     Тестван CRC AD6D9671     Копиран CRC AD6D9671     Тракът не е в базата данни на AccurateRip     Копиране OK 6 Трак(а) точно извлечен(и) 7 Трак(а) не е(са) в базата данни на AccurateRipНякои тракове не могат да бъдат потвърдени като точниНяма грешкиКрай на отчета---- CUETools DB Plugin V2.1.6[CTDB TOCID: JK8q_faADa8eGFW.j0j83bZCmIw-] foundSubmit result: already submittedTrack | CTDB Status  1   | (1/1) Accurately ripped  2   | (1/1) Accurately ripped  3   | (1/1) Accurately ripped  4   | (1/1) Accurately ripped  5   | (1/1) Accurately ripped  6   | (1/1) Accurately ripped  7   | (1/1) Accurately ripped  8   | (1/1) Accurately ripped  9   | (1/1) Accurately ripped 10   | (1/1) Accurately ripped 11   | (1/1) Accurately ripped 12   | (1/1) Accurately ripped 13   | (1/1) Accurately ripped==== Контролна сума от отчет 23937D6791DBA7C4B88CE802EDCEF9B308A62FA53E8B753FCB27E72C9BC725A3 ====

Содержание индексной карты (.CUE)

REM GENRE PopREM DATE 2003REM DISCID 9B0CA60DREM COMMENT "ExactAudioCopy v1.3"PERFORMER "Лили Иванова"TITLE "Илюзия, наречена любов"REM COMPOSER ""FILE "01 Девет кръга.wav" WAVE  TRACK 01 AUDIO    TITLE "Девет кръга"    PERFORMER "Лили Иванова"    REM COMPOSER ""    FLAGS DCP    INDEX 01 00:00:00  TRACK 02 AUDIO    TITLE "Илюзия, наречена любов"    PERFORMER "Лили Иванова"    REM COMPOSER ""    FLAGS DCP    INDEX 00 04:06:08FILE "02 Илюзия, наречена любов.wav" WAVE    INDEX 01 00:00:00  TRACK 03 AUDIO    TITLE "Сенки в нощта"    PERFORMER "Лили Иванова"    REM COMPOSER ""    FLAGS DCP    INDEX 00 04:53:24FILE "03 Сенки в нощта.wav" WAVE    INDEX 01 00:00:00  TRACK 04 AUDIO    TITLE "Лодка ли е любовта"    PERFORMER "Лили Иванова"    REM COMPOSER ""    FLAGS DCP    INDEX 00 03:46:69FILE "04 Лодка ли е любовта.wav" WAVE    INDEX 01 00:00:00  TRACK 05 AUDIO    TITLE "Точно за това"    PERFORMER "Лили Иванова"    REM COMPOSER ""    FLAGS DCP    INDEX 00 03:55:70FILE "05 Точно за това.wav" WAVE    INDEX 01 00:00:00  TRACK 06 AUDIO    TITLE "Щрих"    PERFORMER "Лили Иванова"    REM COMPOSER ""    FLAGS DCP    INDEX 00 04:46:27FILE "06 Щрих.wav" WAVE    INDEX 01 00:00:00  TRACK 07 AUDIO    TITLE "Ветре, клех те"    PERFORMER "Лили Иванова"    REM COMPOSER ""    FLAGS DCP    INDEX 00 03:53:05FILE "07 Ветре, клех те.wav" WAVE    INDEX 01 00:00:00  TRACK 08 AUDIO    TITLE "Покруса (Version 2003)"    PERFORMER "Лили Иванова"    REM COMPOSER ""    FLAGS DCP    INDEX 00 05:35:26FILE "08 Покруса (Version 2003).wav" WAVE    INDEX 01 00:00:00  TRACK 09 AUDIO    TITLE "Маската"    PERFORMER "Лили Иванова"    REM COMPOSER ""    FLAGS DCP    INDEX 00 04:17:42FILE "09 Маската.wav" WAVE    INDEX 01 00:00:00  TRACK 10 AUDIO    TITLE "Плачейки в нощта"    PERFORMER "Лили Иванова"    REM COMPOSER ""    FLAGS DCP    INDEX 00 04:30:66FILE "10 Плачейки в нощта.wav" WAVE    INDEX 01 00:00:00  TRACK 11 AUDIO    TITLE "Влюбеният Jazz (2003)"    PERFORMER "Лили Иванова"    REM COMPOSER ""    FLAGS DCP    INDEX 00 03:02:22FILE "11 Влюбеният Jazz (2003).wav" WAVE    INDEX 01 00:00:00  TRACK 12 AUDIO    TITLE "Девет кръга (инструментал)"    PERFORMER "Лили Иванова"    REM COMPOSER ""    FLAGS DCP    INDEX 00 02:55:56FILE "12 Девет кръга (инструментал).wav" WAVE    INDEX 01 00:00:00  TRACK 13 AUDIO    TITLE "Сенки в нощта (инструментал)"    PERFORMER "Лили Иванова"    REM COMPOSER ""    FLAGS DCP    INDEX 00 04:05:26FILE "13 Сенки в нощта (инструментал).wav" WAVE    INDEX 01 00:00:00

Об альбоме (сборнике)

Фотография: Васил Къркеланов
Грим: Кирил Чалъков
Коса: Чавдар Василев – Чочо
Дизайн: Иво Кирков, Яним Маджаров
Печат: К&Е Принт ООД, Бургас
Записите са реализирани в студио „Рей” от инж. Ангел Попов
Продуцент: Лили ИвановаСърдечни благодарности за достойната и морална подкрепа на: г-н Ахмед Доган, г-н Христо Милев – гр. Кубрат, г-н Марин Петров – гр. Разград, г-н Пламен Великов – гр. Русе и на Застрахователно акционерно дружество „Енергия”.

Примеры страниц из буклета

Для скачки контента: [Установить программу-клиент] и кликнуть по - Скачать

[asmlocator.ru].t433894.torrent 
Торрент: Зарегистрирован [ 2017-11-10 19:10 ] · 7624808F01E35597E65C18DA6CCEA439544C63A3

Скачать .torrent

Скачать

15 KB

Статус: проверено
Скачан: 0 раз
Размер: 345 MB
terms.php
[Профиль] [ЛС]
Показать сообщения:    
Ответить на тему

Текущее время: 20-Ноя 15:26

Часовой пояс: UTC ± 0



Вы не можете начинать темы
Вы не можете отвечать на сообщения
Вы не можете редактировать свои сообщения
Вы не можете удалять свои сообщения
Вы не можете голосовать в опросах
Вы не можете прикреплять файлы к сообщениям
Вы можете скачивать файлы