Gentleman\'s Dub Club. L\'album de la semaine [2017, Dub/Dubstep ska/Dubtronica/Reggae/Reggae fusion/2tone, HDTV1080i]

Ответить на тему
Статистика раздачи
Размер:  1,2 GB   |    Зарегистрирован:  11 дней   |    Скачан:  0 раз

Полного источника не было: Никогда

 
   
 
 
Автор Сообщение

star21 ®

Пол: Не указан

Стаж: 2 года

Сообщений: 355767

Создавать темы 09-Ноя-2017 03:00

[Цитировать]

Gentleman's Dub Club. L'album de la semaine Страна: 11111
Жанр: Dub/Dubstep ska/Dubtronica/Reggae/Reggae fusion/2tone
Продолжительность: 00:27:35
Год выпуска: 2017Треклист: Dancing in the Breeze
Take Control
Your Light
Live Your Life
Let A Little LoveКачество : HDTV
Разрешение видео/развертка: 1080i
Формат: TS
Видео кодек: MPEG4
Аудио кодек: AC3
Видео: Mpeg4 AVC, 1920x1080, 5540 kbps, 25 fps
Аудио: AC3, 192 kbps, 48 kHz, stereo
Аудио2: AC3, 192 kbps, 48 kHz, stereo

Mediainfo

GeneralID                                       : 1 (0x1)Complete name                            : D:\Downloads\Gentleman's Dub Club. L'album de la semaine 2017.tsFormat                                   : MPEG-TSFile size                                : 1.20 GiBDuration                                 : 27 min 35 sOverall bit rate mode                    : VariableOverall bit rate                         : 6 238 kb/sVideoID                                       : 210 (0xD2)Menu ID                                  : 8802 (0x2262)Format                                   : AVCFormat/Info                              : Advanced Video CodecFormat profile                           : High@L4Format settings, CABAC                   : YesFormat settings, ReFrames                : 4 framesCodec ID                                 : 27Duration                                 : 27 min 34 sBit rate                                 : 5 542 kb/sWidth                                    : 1 920 pixelsHeight                                   : 1 080 pixelsDisplay aspect ratio                     : 16:9Frame rate                               : 25.000 FPSStandard                                 : ComponentColor space                              : YUVChroma subsampling                       : 4:2:0Bit depth                                : 8 bitsScan type                                : MBAFFScan type, store method                  : Interleaved fieldsScan order                               : Top Field FirstBits/(Pixel*Frame)                       : 0.107Stream size                              : 1.07 GiB (89%)Color range                              : LimitedColor primaries                          : BT.709Transfer characteristics                 : BT.709Matrix coefficients                      : BT.709Audio #1ID                                       : 221 (0xDD)Menu ID                                  : 8802 (0x2262)Format                                   : AC-3Format/Info                              : Audio Coding 3Mode extension                           : CM (complete main)Format settings, Endianness              : BigCodec ID                                 : 6Duration                                 : 27 min 34 sBit rate mode                            : ConstantBit rate                                 : 192 kb/sChannel(s)                               : 2 channelsChannel positions                        : Front: L RSampling rate                            : 48.0 kHzFrame rate                               : 31.250 FPS (1536 spf)Compression mode                         : LossyDelay relative to video                  : -80 msStream size                              : 37.9 MiB (3%)Language                                 : FrenchAudio #2ID                                       : 222 (0xDE)Menu ID                                  : 8802 (0x2262)Format                                   : AC-3Format/Info                              : Audio Coding 3Mode extension                           : CM (complete main)Format settings, Endianness              : BigCodec ID                                 : 6Duration                                 : 27 min 34 sBit rate mode                            : ConstantBit rate                                 : 192 kb/sChannel(s)                               : 2 channelsChannel positions                        : Front: L RSampling rate                            : 48.0 kHzFrame rate                               : 31.250 FPS (1536 spf)Compression mode                         : LossyDelay relative to video                  : -80 msStream size                              : 37.9 MiB (3%)Language                                 : English

Скриншоты

Для скачки контента: [Установить программу-клиент] и кликнуть по - Скачать

[asmlocator.ru].t432497.torrent 
Торрент: Зарегистрирован [ 2017-11-09 03:00 ] · 9FEF966D5CA11F898DA6222C7B174FE2DA707948

Скачать .torrent

Скачать

12 KB

Статус: проверено
Скачан: 0 раз
Размер: 1,2 GB
terms.php
[Профиль] [ЛС]
Показать сообщения:    
Ответить на тему

Текущее время: 20-Ноя 15:30

Часовой пояс: UTC ± 0



Вы не можете начинать темы
Вы не можете отвечать на сообщения
Вы не можете редактировать свои сообщения
Вы не можете удалять свои сообщения
Вы не можете голосовать в опросах
Вы не можете прикреплять файлы к сообщениям
Вы можете скачивать файлы