(NewAge) [CD] Medwyn Goodall - Guardian Spirit - 1996, FLAC (image+.cue), lossless

Ответить на тему
Статистика раздачи
Размер:  263 MB   |    Зарегистрирован:  12 дней   |    Скачан:  0 раз

Полного источника не было: 7 дней

 
   
 
 
Автор Сообщение

star21 ®

Пол: Не указан

Стаж: 2 года

Сообщений: 355767

Создавать темы 07-Ноя-2017 23:06

[Цитировать]

Medwyn Goodall / Guardian Spirit Жанр: NewAge
Носитель: CD
Страна-производитель диска (релиза): UK
Год издания: 1996
Издатель (лейбл): New World Music ‎
Номер по каталогу: NWCD 402
Аудиокодек: FLAC (*.flac)
Тип рипа: image+.cue
Битрейт аудио: lossless
Продолжительность: 00:46:22
Источник (релизер): Original CD
Наличие сканов в содержимом раздачи: нет
Треклист:
1. Heaven & Earth 8:42
2. Wolf Companion 6:44
3. Forest Spirits 8:11
4. Nature's Dream 8:48
5. Water Song 5:24
6. Night Protection 8:29

Лог создания рипа

Exact Audio Copy V1.3 from 2. September 2016EAC extraction logfile from 27. March 2017, 14:54Medwyn Goodall / Guardian SpiritUsed drive  : PIONEER BD-RW   BDR-209M   Adapter: 1  ID: 0Read mode               : SecureUtilize accurate stream : YesDefeat audio cache      : YesMake use of C2 pointers : NoRead offset correction                      : 667Overread into Lead-In and Lead-Out          : NoFill up missing offset samples with silence : YesDelete leading and trailing silent blocks   : NoNull samples used in CRC calculations       : YesUsed interface                              : Native Win32 interface for Win NT & 2000Used output format              : User Defined EncoderSelected bitrate                : 1024 kBit/sQuality                         : HighAdd ID3 tag                     : NoCommand line compressor         : C:\Program Files (x86)\Exact Audio Copy\Flac\flac.exeAdditional command line options : -V -8 -T "Date=%year%" -T "Genre=%genre%" %source%TOC of the extracted CD     Track |   Start  |  Length  | Start sector | End sector    ---------------------------------------------------------        1  |  0:00.00 |  8:42.70 |         0    |    39219        2  |  8:42.70 |  6:44.08 |     39220    |    69527        3  | 15:27.03 |  8:11.16 |     69528    |   106368        4  | 23:38.19 |  8:49.00 |    106369    |   146043        5  | 32:27.19 |  5:24.39 |    146044    |   170382        6  | 37:51.58 |  8:29.67 |    170383    |   208624Range status and errorsSelected range     Filename C:\Users\Jean\Music\Medwyn Goodall - Guardian Spirit.wav     Peak level 96.9 %     Extraction speed 7.1 X     Range quality 100.0 %     Test CRC D6D92AF5     Copy CRC D6D92AF5     Copy OKNo errors occurredAccurateRip summaryTrack  1  accurately ripped (confidence 2)  [366CC3CF]  (AR v2)Track  2  accurately ripped (confidence 2)  [2BAC800F]  (AR v2)Track  3  accurately ripped (confidence 2)  [32D098A9]  (AR v2)Track  4  accurately ripped (confidence 2)  [D5076D44]  (AR v2)Track  5  accurately ripped (confidence 2)  [12B14257]  (AR v2)Track  6  accurately ripped (confidence 2)  [F4C6275D]  (AR v2)All tracks accurately rippedEnd of status report---- CUETools DB Plugin V2.1.6[CTDB TOCID: 8nDBsIT6pIc6LW4zKPNTdf8_G_g-] foundSubmit result: 8nDBsIT6pIc6LW4zKPNTdf8_G_g- has been confirmedTrack | CTDB Status  1   | (13/15) Accurately ripped, or (2/15) differs in 986 samples @00:15:55,00:19:54-00:19:55,00:27:61,00:34:46,00:39:74,00:44:06,00:56:29-00:56:30,01:00:35-01:00:36,01:04:48,01:07:44-01:07:45,01:08:54-01:08:65,01:09:02,01:13:25-01:13:26,01:13:33-01:13:37,01:15:62-01:15:64,01:17:03,01:21:16,01:24:13,01:25:27,01:29:40,01:32:54,01:33:51-01:33:52,01:37:71-01:37:72,01:41:08,01:42:07,01:45:25-01:45:26,01:59:04,02:25:17-02:25:18,02:31:67,02:37:46,02:53:66,03:42:06,03:46:40,04:00:00,04:03:14,04:13:39-04:13:41,04:21:20,04:30:24,04:31:45,04:34:66-04:34:67,04:39:40-04:39:41,04:40:54-04:40:55,04:45:22,04:48:44,04:49:64,04:53:09,04:59:05-04:59:06,05:02:25-05:02:26,05:12:70,05:20:69,05:26:62,05:45:43,06:17:40,06:27:02,06:31:61,06:51:02-06:51:03,06:52:13-06:52:14,07:11:44,07:59:29,08:09:22-08:09:23,08:15:34,08:19:19,08:20:37,08:24:15,08:37:71,08:39:11  2   | (15/15) Accurately ripped  3   | (15/15) Accurately ripped  4   | (15/15) Accurately ripped  5   | (14/15) Accurately ripped  6   | (14/15) Accurately ripped==== Log checksum B566EEBF6BE4D16696B89D45D53890B55B9B510900435B5CFFDB9E175BAF33DE ====
Доп. информация:

Для скачки контента: [Установить программу-клиент] и кликнуть по - Скачать

[asmlocator.ru].t431389.torrent 
Торрент: Зарегистрирован [ 2017-11-07 23:05 ] · 33F55900350C330BC053D8BCA1830F828A2B2A18

Скачать .torrent

Скачать

11 KB

Статус: проверено
Скачан: 0 раз
Размер: 263 MB
terms.php
[Профиль] [ЛС]
Показать сообщения:    
Ответить на тему

Текущее время: 20-Ноя 15:28

Часовой пояс: UTC ± 0



Вы не можете начинать темы
Вы не можете отвечать на сообщения
Вы не можете редактировать свои сообщения
Вы не можете удалять свои сообщения
Вы не можете голосовать в опросах
Вы не можете прикреплять файлы к сообщениям
Вы можете скачивать файлы